.
Авторизация | Регистрация

bitok.xyz

» » Синяя бездна 2 / 47 Meters Down: Uncaged (2019) WEB-DLRip [H.265] [10-bit] торрент скачать бесплатно


    Синяя бездна 2 / 47 Meters Down: Uncaged (2019) WEB-DLRip [H.265] [10-bit] торрент скачать бесплатно

    Дата: 30-10-2019, 05:00 | .torrent скачали: 0

    Синяя бездна 2 / 47 Meters Down: Uncaged (2019) WEB-DLRip [H.265] [10-bit]Производство: Великобритания, США/Entertainment Studios Motion Pictures, thefyzz
    Жанр: Ужасы, триллер, драма, приключения
    Режиссер: Йоханнес Робертс

    Актеры
    Софи Нелисс, Корина Фокс, Бриэнн Тджу, Систин Роуз Сталлоне, Брэк Бэссинджер, Ниа Лонг, Джон Корбетт, Дави Сантос, Кайлин Рамбо, Аксель Мансилла

    Описание

    Три подруги отправляются исследовать подводный разрушенный город, но вскоре выясняют, что посмотреть на руины приплыли не они одни. Запланированное развлечение оборачивается кошмаром — теперь ныряльщицам придется спасаться от кровожадных акул.

    Дата мировой премьеры: 15 августа 2019
    Дата премьеры в России: 15 августа 2019

    Продолжительность: 01: 29: 38
    Качество видео: WEB-DLRip
    Перевод: Дублированный (iTunes)
    Субтитры: Русские (полные), английские (полные)
    Видео: HEVC/H.265, 1024x428, ~1885 Kbps
    Аудио 1: AC3, 2 ch, 160 Kbps - Русский
    Аудио 2: AC3, 2 ch, 160 Kbps - Английский
    Общее
    Уникальный идентификатор : 237085100057954313533474947120529168984 (0xB25CEDEA568E81943FFFDB991D105A58)
    Полное имя : 47.Meters.Down.Uncaged.2019.WEB-DLRip.10bit.HEVC.mkv
    Формат : Matroska
    Версия формата : Version 4/Version 2
    Размер файла : 1, 41 Гбайт
    Продолжительность : 1 ч. 29 м.
    Общий поток : 2250 Кбит/сек
    Название фильма : 47 Meters Down Uncaged 2019
    Программа кодирования : XviD4PSP 8.0.77
    Библиотека кодирования : Lavf58.20.100
    ErrorDetectionType : Per level 1
    ENCODING_INFO : MATROSKA, WEBM MKV
    Видео
    Идентификатор : 1
    Формат : HEVC
    Формат/Информация : High Efficiency Video Coding
    Профиль формата : Main10@L4.1@High
    Идентификатор кодека : V_MPEGH/ISO/HEVC
    Продолжительность : 1 ч. 29 м.
    Битрейт : 1885 Кбит/сек
    Ширина : 1024 пикселя
    Высота : 428 пикселей
    Соотношение сторон : 2, 40: 1
    Режим частоты кадров : Постоянный
    Частота кадров : 24, 000 кадра/сек
    Цветовое пространство : YUV
    Субдискретизация насыщенности : 4: 2: 0
    Битовая глубина : 10 бит
    Бит/(Пиксели*Кадры) : 0.179
    Размер потока : 1, 18 Гбайт (84%)
    Язык : English
    Default : Да
    Forced : Нет
    Цветовой диапазон : Limited
    Основные цвета : BT.709
    Характеристики трансфера : BT.709
    Коэффициенты матрицы : BT.709
    ENCODING_INFO : H264 HEVC NVENC VBR 2000kbps HQ
    Аудио #1
    Идентификатор : 2
    Формат : AC-3
    Формат/Информация : Audio Coding 3
    Параметр Endianness формата : Big
    Идентификатор кодека : A_AC3
    Продолжительность : 1 ч. 29 м.
    Вид битрейта : Постоянный
    Битрейт : 160 Кбит/сек
    Каналы : 2 канала
    Расположение каналов : Front: L R
    Частота : 48, 0 КГц
    Частота кадров : 31, 250 кадров/сек (1536 SPF)
    Битовая глубина : 16 бит
    Метод сжатия : С потерями
    Размер потока : 103 Мбайт (7%)
    Заголовок : iTunes
    Язык : Russian
    ServiceKind/String : Complete Main
    Default : Да
    Forced : Нет
    ENCODING_INFO : AC3 AC3 CBR 160kbps
    Аудио #2
    Идентификатор : 3
    Формат : AC-3
    Формат/Информация : Audio Coding 3
    Параметр Endianness формата : Big
    Идентификатор кодека : A_AC3
    Продолжительность : 1 ч. 29 м.
    Вид битрейта : Постоянный
    Битрейт : 160 Кбит/сек
    Каналы : 2 канала
    Расположение каналов : Front: L R
    Частота : 48, 0 КГц
    Частота кадров : 31, 250 кадров/сек (1536 SPF)
    Битовая глубина : 16 бит
    Метод сжатия : С потерями
    Размер потока : 103 Мбайт (7%)
    Заголовок : Original
    Язык : English
    ServiceKind/String : Complete Main
    Default : Нет
    Forced : Нет
    ENCODING_INFO : AC3 AC3 CBR 160kbps
    Текст #1
    Идентификатор : 4
    Формат : UTF-8
    Идентификатор кодека : S_TEXT/UTF8
    Идентификатор кодека/Информация : UTF-8 Plain Text
    Заголовок : Full
    Язык : Russian
    Default : Да
    Forced : Нет
    ENCODING_INFO : SUBRIP COPY Быстрое
    Текст #2
    Идентификатор : 5
    Формат : UTF-8
    Идентификатор кодека : S_TEXT/UTF8
    Идентификатор кодека/Информация : UTF-8 Plain Text
    Заголовок : Full
    Язык : English
    Default : Нет
    Forced : Нет
    ENCODING_INFO : SUBRIP COPY Быстрое
    Меню
    00: 00: 00.000 : : Глава 1
    00: 05: 21.291 : : Глава 2
    00: 12: 18.665 : : Глава 3
    00: 19: 37.873 : : Глава 4
    00: 26: 12.331 : : Глава 5
    00: 36: 57.371 : : Глава 6
    00: 44: 21.287 : : Глава 7
    00: 51: 40.620 : : Глава 8
    01: 00: 39.078 : : Глава 9
    01: 07: 42.744 : : Глава 10
    01: 14: 57.077 : : Глава 11

    Скриншоты для ознакомления



    Все одноименные релизы в Клубе Время раздачи: 24/7 (до появления первых 3-5 скачавших)

    Онлайн видео Синяя бездна 2



    Синяя бездна 2/47 Meters Down: Uncaged (2019) WEB-DLRip [H.265] [10-bit]
    Рейтинг →
     (голосов: 1, оценка 3/5, голосовать можно 1 раз )

    Другие торренты по теме:

  • Синяя бездна / 47 Meters Down (2017) DVDRip [AD]
  • Синяя бездна / 47 Meters Down (2017) DVDRip [MVO]
  • Синяя бездна / 47 Meters Down (2017) WEB-DLRip
  • Синяя бездна / 47 Meters Down (2017) WEB-DL [H.264 / 1080p-LQ]
  • Синяя бездна / 47 Meters Down (2017) WEB-DL [1080p] ATV
  • Синяя бездна / 47 Meters Down (2017) BDRip [H264 / 720p]
  • Синяя бездна / 47 Meters Down (2017) BDRip [H264 / 1080p]
  • Синяя бездна / 47 Meters Down (2017) BDRemux [H264 / 1080p]


    • Комментарии (0):

      Информация

      Информация

        Посетители, находящиеся в группе Гости, не могут оставлять комментарии в данной новости.

        ↓ Меню




        ↓ Опрос

        Вы добавили сайт в закладки?
        Да
        Нет


        Популярное