.
Авторизация | Регистрация

bitok.xyz

» » Убитые горем / Stressed to Death (2019) WEBRip [MVO] [AD] торрент скачать бесплатно


    Убитые горем / Stressed to Death (2019) WEBRip [MVO] [AD] торрент скачать бесплатно

    Дата: 30-10-2019, 05:00 | .torrent скачали: 0

    Убитые горем / Stressed to Death (2019) WEBRip [MVO] [AD]Производство: США/Iceland Productions
    Жанр: Триллер
    Режиссер: Джаред Кон

    Актеры
    Джина Холден, Тейлор Блэкуэлл, Сара Олдрич, Джейсон Герхардт, Джозеф Нассер, Крэйг Геллис, Макс Адлер, Мэтт Корнетт, Гия Дэвис, Питер Мастне

    Описание

    Однажды во время своего дежурства на скорой помощи Мэгги получает вызов с места преступления. Вскоре она остается один на один с вооруженным мужчиной и двумя пострадавшими, которые остро нуждаются в ее помощи, но спасти она сможет только кого-то одного. Мэгги предстоит сделать выбор, последствия которого изменят всю её жизнь.

    Дата мировой премьеры: 24 мая 2019
    Продолжительность: 01: 27: 16
    Качество видео: WEBRip
    Перевод: Многоголосый закадровый, любительский (AlphaProject)
    Субтитры: Отсутствуют
    Реклама: Присутствует баннер.
    Видео: XviD, 720x400, ~2188 Kbps
    Аудио: AC-3, 2 ch, 192 Kbps
    Общее
    Полное имя : C: _Stressed.to.Death.2019.WEBRip.avi
    Формат : AVI
    Формат/Информация : Audio Video Interleave
    Размер файла : 1, 46 Гбайт
    Продолжительность : 1 ч. 27 м.
    Общий поток : 2389 Кбит/сек
    Программа кодирования : VirtualDubMod 1.5.10.3 |www.virtualdub-fr.org|| (build 2550/release)
    Библиотека кодирования : VirtualDubMod build 2550/release
    Видео
    Идентификатор : 0
    Формат : MPEG-4 Visual
    Профиль формата : Advanced Simple@L5
    Настройки формата : BVOP1/Custom Matrix
    Параметр BVOP формата : 1
    Параметр QPel формата : Нет
    Параметр GMC формата : Без точки перехода
    Параметр матрицы формата : Выборочная
    Идентификатор кодека : XVID
    Идентификатор кодека/Подсказка : XviD
    Продолжительность : 1 ч. 27 м.
    Битрейт : 2188 Кбит/сек
    Ширина : 720 пикселей
    Высота : 400 пикселей
    Соотношение сторон : 16: 9
    Частота кадров : 23, 976 (24000/1001) кадра/сек
    Цветовое пространство : YUV
    Субдискретизация насыщенности : 4: 2: 0
    Битовая глубина : 8 бит
    Тип развёртки : Прогрессивная
    Метод сжатия : С потерями
    Бит/(Пиксели*Кадры) : 0.317
    Размер потока : 1, 33 Гбайт (92%)
    Библиотека кодирования : XviD 1.2.1 (UTC 2008-12-04)
    Аудио
    Идентификатор : 1
    Формат : AC-3
    Формат/Информация : Audio Coding 3
    Коммерческое название : Dolby Digital
    Идентификатор кодека : 2000
    Продолжительность : 1 ч. 27 м.
    Вид битрейта : Постоянный
    Битрейт : 192 Кбит/сек
    Каналы : 2 канала
    ChannelLayout : L R
    Частота : 48, 0 КГц
    Частота кадров : 31, 250 кадров/сек (1536 SPF)
    Битовая глубина : 16 бит
    Метод сжатия : С потерями
    Размер потока : 120 Мбайт (8%)
    Выравнивание : Разделение по промежуткам
    Продолжительность промежутка : 42 мс. (1, 00 видеокадр)
    Время предзагрузки промежутка : 500 мс.
    ServiceKind/String : Complete Main

    Скриншоты для ознакомления



    Все одноименные релизы в Клубе Время раздачи: 24/7 (до появления первых 3-5 скачавших)

    Онлайн видео Убитые горем



    Убитые горем/Stressed to Death (2019) WEBRip [MVO] [AD]
    Рейтинг →
     (голосов: 1, оценка 3/5, голосовать можно 1 раз )

    Другие торренты по теме:



      Комментарии (0):

      Информация

      Информация

        Посетители, находящиеся в группе Гости, не могут оставлять комментарии в данной новости.

        ↓ Меню




        ↓ Опрос

        Вы добавили сайт в закладки?
        Да
        Нет


        Популярное