.
Авторизация | Регистрация

bitok.xyz

» » Герой (2019) WEB-DLRip [H.265] [10-bit] торрент скачать бесплатно


    Герой (2019) WEB-DLRip [H.265] [10-bit] торрент скачать бесплатно

    Дата: 30-10-2019, 05:00 | .torrent скачали: 1

    Герой (2019) WEB-DLRip [H.265] [10-bit]Производство: Россия, Телеканал РОССИЯ 1, Карго Фильм
    Жанр: Триллер, Комедия, Боевик, Криминал
    Режиссер: Карен Оганесян
    Продюсер: Карен Оганесян, Полина Иванова

    Актеры
    Александр Петров, Владимир Машков, Светлана Ходченкова, Ян Алабушев, Константин Лавроненко, Марина Петренко, Анастасия Тодореску, Тобиас Аспелин, Адам Джеймс Маскин

    Описание

    15 лет назад Андрей под руководством своего отца, полковника Родина, прошел обучение в секретной спецшколе, где из подростков готовили агентов Службы внешней разведки. Когда экспериментальный проект закрыли, Андрей сжёг мосты, остался в Европе и старался не вспоминать о прошлом. Но однажды ему звонит отец, которого все считали погибшим. Тот сообщает, что на Андрея открыта охота, но кто решил его уничтожить — неизвестно. Спасаясь бегством, он находит Машу, с которой учился в спецшколе. Андрею предстоит пройти через любовь и предательство и узнать об истинных масштабах беспощадной шпионской игры, в которую он оказался втянут поневоле.

    Возраст: 12+ (зрителям, достигшим 12 лет)
    Дата мировой премьеры: 26 сентября 2019
    Дата российской премьеры: 26 сентября 2019, Централ Партнершип
    Продолжительность: 01: 55: 42
    Качество видео: WEB-DLRip
    Перевод: Не требуется
    Субтитры: Отсутствуют
    Видео: HEVC/H.265, 1024x428, 1923 kbps
    Аудио: АС3, 2 ch, 160 Kbps | РусскийОбщее
    Уникальный идентификатор : 221322055231291579719834281511772034259 (0xA68113CD5CB2CAC4CCABB982209514D3)
    Полное имя : GEROY.2019.WEB-DLRip.10bit.HEVC.mkv
    Формат : Matroska
    Версия формата : Version 4/Version 2
    Размер файла : 1, 72 Гбайт
    Продолжительность : 1 ч. 55 м.
    Общий поток : 2125 Кбит/сек
    Название фильма : GEROY (2019) WEB-DL 1080p
    Программа кодирования : XviD4PSP 8.0.77
    Библиотека кодирования : Lavf58.20.100
    Обложка : Yes
    ErrorDetectionType : Per level 1
    Attachments : cover
    ENCODING_INFO : JPEG COPY Быстрое
    Язык : und
    Видео
    Идентификатор : 1
    Формат : HEVC
    Формат/Информация : High Efficiency Video Coding
    Профиль формата : Main10@L4.1@High
    Идентификатор кодека : V_MPEGH/ISO/HEVC
    Продолжительность : 1 ч. 55 м.
    Битрейт : 1923 Кбит/сек
    Ширина : 1024 пикселя
    Высота : 428 пикселей
    Соотношение сторон : 2, 40: 1
    Режим частоты кадров : Постоянный
    Частота кадров : 25, 000 кадров/сек
    Цветовое пространство : YUV
    Субдискретизация насыщенности : 4: 2: 0
    Битовая глубина : 10 бит
    Бит/(Пиксели*Кадры) : 0.175
    Размер потока : 1, 55 Гбайт (90%)
    Заголовок : GEROY (2019)
    Язык : English
    Default : Да
    Forced : Нет
    Цветовой диапазон : Limited
    Основные цвета : BT.709
    Характеристики трансфера : BT.709
    Коэффициенты матрицы : BT.709
    ENCODING_INFO : H264 HEVC NVENC VBR 2000kbps HQ
    Аудио
    Идентификатор : 2
    Формат : AC-3
    Формат/Информация : Audio Coding 3
    Параметр Endianness формата : Big
    Идентификатор кодека : A_AC3
    Продолжительность : 1 ч. 55 м.
    Вид битрейта : Постоянный
    Битрейт : 160 Кбит/сек
    Каналы : 2 канала
    Расположение каналов : Front: L R
    Частота : 48, 0 КГц
    Частота кадров : 31, 250 кадров/сек (1536 SPF)
    Битовая глубина : 16 бит
    Метод сжатия : С потерями
    Размер потока : 132 Мбайт (8%)
    Заголовок : iTunes | GEROY (2019) WEB-DL 1080p
    Язык : Russian
    ServiceKind/String : Complete Main
    Default : Да
    Forced : Нет
    ENCODING_INFO : AC3 AC3 CBR 160kbps
    Меню
    00: 00: 00.000 : ru: Глава 1
    00: 08: 07.120 : ru: Глава 2
    00: 16: 04.800 : ru: Глава 3
    00: 23: 50.720 : ru: Глава 4
    00: 31: 17.320 : ru: Глава 5
    00: 38: 27.800 : ru: Глава 6
    00: 46: 04.680 : ru: Глава 7
    00: 54: 12.240 : ru: Глава 8
    01: 01: 21.440 : ru: Глава 9
    01: 09: 38.200 : ru: Глава 10
    01: 17: 53.200 : ru: Глава 11
    01: 24: 54.760 : ru: Глава 12
    01: 32: 16.360 : ru: Глава 13
    01: 39: 37.440 : ru: Глава 14
    01: 46: 51.680 : ru: Глава 15

    Скриншоты для ознакомления



    Все одноименные релизы в Клубе
    Время раздачи: 24/7 (до появления первых 3-5 скачавших)

    Онлайн видео Герой (2019) WEB



    Герой (2019) WEB-DLRip [H.265] [10-bit]
    Рейтинг →
     (голосов: 1, оценка 4/5, голосовать можно 1 раз )

    Другие торренты по теме:

  • Снайпер: Герой сопротивления (2015) WEB-DLRip скачать через торрент бесплатно
  • Неуловимые: Последний герой (2015) WEB-DLRip скачать через торрент бесплатно
  • Неуловимые: Последний герой (2015) WEB-DLRip скачать через торрент бесплатно
  • Герой (2016) WEB-DLRip
  • Герой / Hero (1992) WEB-DLRip
  • Герой (2019) WEB-DLRip
  • Герой / Hero (1992) WEB-DLRip [H.264] скачать через торрент бесплатно
  • Герой / Hero (2015) WEB-DLRip [H.264 / 720p-LQ]


    • Комментарии (0):

      Информация

      Информация

        Посетители, находящиеся в группе Гости, не могут оставлять комментарии в данной новости.

        ↓ Меню




        ↓ Опрос

        Вы добавили сайт в закладки?
        Да
        Нет


        Популярное