.
Авторизация | Регистрация

bitok.xyz

» » Герой (2019) WEBRip [H.264 / 720p-LQ] торрент скачать бесплатно


    Герой (2019) WEBRip [H.264 / 720p-LQ] торрент скачать бесплатно

    Дата: 30-10-2019, 05:00 | .torrent скачали: 8

    Герой (2019) WEBRip [H.264 / 720p-LQ]Производство: Россия, Телеканал РОССИЯ 1, Карго Фильм
    Жанр: Триллер, Комедия, Боевик, Криминал
    Режиссер: Карен Оганесян
    Продюсер: Карен Оганесян, Полина Иванова

    Актеры
    Александр Петров, Владимир Машков, Светлана Ходченкова, Ян Алабушев, Константин Лавроненко, Марина Петренко, Анастасия Тодореску, Тобиас Аспелин, Адам Джеймс Маскин

    Описание

    15 лет назад Андрей под руководством своего отца, полковника Родина, прошел обучение в секретной спецшколе, где из подростков готовили агентов Службы внешней разведки. Когда экспериментальный проект закрыли, Андрей сжёг мосты, остался в Европе и старался не вспоминать о прошлом. Но однажды ему звонит отец, которого все считали погибшим. Тот сообщает, что на Андрея открыта охота, но кто решил его уничтожить — неизвестно. Спасаясь бегством, он находит Машу, с которой учился в спецшколе. Андрею предстоит пройти через любовь и предательство и узнать об истинных масштабах беспощадной шпионской игры, в которую он оказался втянут поневоле.

    Возраст: 12+ (зрителям, достигшим 12 лет)
    Дата мировой премьеры: 26 сентября 2019
    Дата российской премьеры: 26 сентября 2019, Централ Партнершип
    Релиз от: NNMClub
    Продолжительность: 01: 55: 42
    Качество видео: WEBRip (batonchik )
    Перевод: Не требуется (русский) iTunes
    Субтитры: Отсутствуют
    Видео: AVC/H.264, 1280x536 (2.40: 1), 2150 kbps, 25.000 fps
    Аудио: АС3, 6 ch, 48 kHz, 384 Kbps | Русский--Information 29.10.2019 15: 15: 02 Standard error stream
    ---Information 29.10.2019 15: 15: 10 y4m info: 1280x536p 1: 1 @ 25/1 fps (cfr)
    ---Information 29.10.2019 15: 15: 10 x264 info: using SAR=1/1
    ---Information 29.10.2019 15: 15: 10 x264 info: using cpu capabilities: MMX2 SSE2Fast SSSE3 SSE4.2 AVX
    ---Information 29.10.2019 15: 15: 10 x264 info: profile High, level 4.1, 4: 2: 0, 8-bit
    ---Information 29.10.2019 18: 11: 15 x264 info: frame I: 2038 Avg QP: 17.39 size: 60549
    ---Information 29.10.2019 18: 11: 15 x264 info: frame P: 48783 Avg QP: 19.76 size: 22203
    ---Information 29.10.2019 18: 11: 15 x264 info: frame B: 122744 Avg QP: 21.80 size: 5361

    ---Information 29.10.2019 18: 11: 15 x264 info: consecutive B-frames: 4.0% 6.1% 7.1% 72.4% 4.5% 4.2% 0.3% 0.4% 0.1% 0.8% 0.1%
    General
    Complete name : Герой.2019.WEBRip.H.264.720p.LQ.NNMClub.mkv
    Format : Matroska
    Format version : Version 4
    File size : 2.05 GiB
    Duration : 1 h 55 min
    Overall bit rate : 2 534 kb/s
    Movie name : Герой.2019.WEBRip.H.264.720p.LQ.NNMClub
    Encoded date : UTC 2019-10-29 16: 24: 38
    Writing application : mkvmerge v36.0.0 (\'Is That Jazz?\') 64-bit
    Writing library : libebml v1.3.9 + libmatroska v1.5.2
    Video
    ID : 1
    Format : AVC
    Format/Info : Advanced Video Codec
    Format profile : High@L4.1
    Format settings : CABAC/9 Ref Frames
    Format settings, CABAC : Yes
    Format settings, Reference frames : 9 frames
    Codec ID : V_MPEG4/ISO/AVC
    Duration : 1 h 55 min
    Bit rate : 2 150 kb/s
    Width : 1 280 pixels
    Height : 536 pixels
    Display aspect ratio : 2.40: 1
    Frame rate mode : Constant
    Frame rate : 25.000 FPS
    Color space : YUV
    Chroma subsampling : 4: 2: 0
    Bit depth : 8 bits
    Scan type : Progressive
    Bits/(Pixel*Frame) : 0.125
    Stream size : 1.74 GiB (85%)
    Title : Герой.2019.WEBRip.H.264.720p.LQ.NNMClub
    Writing library : x264 core 158 r2984 3759fcb
    Encoding settings : cabac=1/ref=9/deblock=1: -3: -3/analyse=0x3: 0x133/me=umh/subme=10/psy=1/psy_rd=1.00: 0.25/mixed_ref=1/me_range=24/chroma_me=1/trellis=2/8x8dct=1/cqm=0/deadzone=6, 6/fast_pskip=0/chroma_qp_offset=-4/threads=12/lookahead_threads=3/sliced_threads=0/nr=0/decimate=0/interlaced=0/bluray_compat=0/constrained_intra=0/bframes=10/b_pyramid=2/b_adapt=2/b_bias=0/direct=1/weightb=1/open_gop=0/weightp=2/keyint=240/keyint_min=23/scenecut=40/intra_refresh=0/rc_lookahead=40/rc=2pass/mbtree=1/bitrate=2150/ratetol=1.0/qcomp=0.60/qpmin=0/qpmax=69/qpstep=4/cplxblur=20.0/qblur=0.5/vbv_maxrate=50000/vbv_bufsize=62500/nal_hrd=none/filler=0/ip_ratio=1.10/aq=3: 0.90
    Language : Russian
    Default : Yes
    Forced : No
    Audio
    ID : 2
    Format : AC-3
    Format/Info : Audio Coding 3
    Commercial name : Dolby Digital
    Codec ID : A_AC3
    Duration : 1 h 55 min
    Bit rate mode : Constant
    Bit rate : 384 kb/s
    Channel(s) : 6 channels
    Channel layout : L R C LFE Ls Rs
    Sampling rate : 48.0 kHz
    Frame rate : 31.250 FPS (1536 SPF)
    Compression mode : Lossy
    Stream size : 318 MiB (15%)
    Title : iTunes
    Language : Russian
    Service kind : Complete Main
    Default : Yes
    Forced : No
    Menu
    00: 00: 00.000 : ru: Глава 1
    00: 08: 07.120 : ru: Глава 2
    00: 16: 04.800 : ru: Глава 3
    00: 23: 50.720 : ru: Глава 4
    00: 31: 17.320 : ru: Глава 5
    00: 38: 27.800 : ru: Глава 6
    00: 46: 04.680 : ru: Глава 7
    00: 54: 12.240 : ru: Глава 8
    01: 01: 21.440 : ru: Глава 9
    01: 09: 38.200 : ru: Глава 10
    01: 17: 53.200 : ru: Глава 11
    01: 24: 54.760 : ru: Глава 12
    01: 32: 16.360 : ru: Глава 13
    01: 39: 37.440 : ru: Глава 14
    01: 46: 51.680 : ru: Глава 15

    Скриншоты для ознакомления



    Все одноименные релизы в Клубе
    Время раздачи: 24/7 (до появления первых 3-5 скачавших)

    Онлайн видео Герой (2019) WEBRip [H.264



    Герой (2019) WEBRip [H.264/720p-LQ]
    Рейтинг →
     (голосов: 1, оценка 4/5, голосовать можно 1 раз )

    Другие торренты по теме:

  • Маленький большой герой / Monkey King Reloaded (2017) WEBRip [H.264 / 1080p-LQ]
  • Shinchou Yuusha: Kono Yuusha ga Ore Tueee Kuse ni Shinchou Sugiru | Этот герой неуязвим, но очень осторожен [2019, TV, 1 из 12 эп.] WEBRip 720p raw


    • Комментарии (0):

      Информация

      Информация

        Посетители, находящиеся в группе Гости, не могут оставлять комментарии в данной новости.

        ↓ Меню




        ↓ Опрос

        Вы добавили сайт в закладки?
        Да
        Нет


        Популярное