.
Авторизация | Регистрация

bitok.xyz

» » Yesterday / Yesterday (2019) UHD BDRemux [H.265 / 2160p] [4K, HDR, 10-bit] торрент скачать бесплатно


    Yesterday / Yesterday (2019) UHD BDRemux [H.265 / 2160p] [4K, HDR, 10-bit] торрент скачать бесплатно

    Дата: 30-10-2019, 05:00 | .torrent скачали: 1

    Yesterday / Yesterday (2019) UHD BDRemux [H.265 / 2160p] [4K, HDR, 10-bit]Производство: Великобритания, Россия, Китай/Decibel Films, Etalon Film
    Жанр: Мюзикл, Фэнтези, Мелодрама, Комедия, Музыка
    Режиссер: Дэнни Бойл

    Актеры
    Химеш Патель, Лили Джеймс, Софи Ди Мартино, Эллиз Шаппелль, Мира Сайал, Гарри Мишель, Винсент Франклин, Джоэль Фрай, Майкл Киванука, Карма Суд

    Описание

    Еще месяц назад Джек был обычным неудачником. Теперь он суперзвезда, миллионы людей слушают его песни, билеты на концерты раскупаются за секунду. В чем секрет? Все просто. Джек — единственный человек в мире, кто помнит о существовании The Beatles.

    Возраст: 12+ (зрителям, достигшим 12 лет)
    Рейтинг MPAA: PG-13 (детям до 13 лет просмотр нежелателен)
    Дата мировой премьеры: 4 мая 2019
    Дата российской премьеры: 19 сентября 2019, UPI
    Релиз от: selezen
    Продолжительность: 01: 56: 14
    Качество видео: UHD BDRemux
    Перевод: Дублированный
    Субтитры: Русские (полные, форсированные, песни), Английские
    Видео: HEVC/H.265, 3840x2160, ~60, 4 Mbps
    Аудио 1: AC3, 6 ch, 640 Kbps - Русский (DUB, Лицензия)
    Аудио 2: TrueHD, 8 ch, 3272 Kbps - Английский
    Аудио 3: AC3, 6 ch, 448 Kbps - Английский
    General
    Unique ID : 290763840942999083344793804898082931424 (0xDABF142C596D16FB2A37C4E66E72C2E0)
    Complete name : D: Video111Yesterday.2019.Lic.BDREMUX.2160p.HDR.seleZen.mkv
    Format : Matroska
    Format version : Version 4
    File size : 52.6 GiB
    Duration : 1 h 56 min
    Overall bit rate mode : Variable
    Overall bit rate : 64.8 Mb/s
    Movie name : Yesterday 2019 4K from селезень
    Encoded date : UTC 2019-10-24 03: 03: 01
    Writing application : mkvmerge v22.0.0 (\'At The End Of The World\') 64-bit
    Writing library : libebml v1.3.5 + libmatroska v1.4.8
    Video
    ID : 1
    Format : HEVC
    Format/Info : High Efficiency Video Coding
    Format profile : Main10@L5.1@High
    HDR format : SMPTE ST 2094 App 4, Version 1, HDR10+ Profile B compatible
    Codec ID : V_MPEGH/ISO/HEVC
    Duration : 1 h 56 min
    Bit rate : 60.4 Mb/s
    Width : 3 840 pixels
    Height : 2 160 pixels
    Display aspect ratio : 16: 9
    Frame rate mode : Constant
    Frame rate : 23.976 (24000/1001) FPS
    Color space : YUV
    Chroma subsampling : 4: 2: 0 (Type 2)
    Bit depth : 10 bits
    Bits/(Pixel*Frame) : 0.304
    Stream size : 49.0 GiB (93%)
    Language : English
    Default : Yes
    Forced : No
    Color range : Limited
    Color primaries : BT.2020
    Transfer characteristics : PQ
    Matrix coefficients : BT.2020 non-constant
    Mastering display color pri : Display P3
    Mastering display luminance : min: 0.0050 cd/m2, max: 1000 cd/m2
    Maximum Content Light Level : 999 cd/m2
    Maximum Frame-Average Light : 125 cd/m2
    Audio #1
    ID : 2
    Format : AC-3
    Format/Info : Audio Coding 3
    Commercial name : Dolby Digital
    Codec ID : A_AC3
    Duration : 1 h 56 min
    Bit rate mode : Constant
    Bit rate : 640 kb/s
    Channel(s) : 6 channels
    Channel layout : L R C LFE Ls Rs
    Sampling rate : 48.0 kHz
    Frame rate : 31.250 FPS (1536 SPF)
    Bit depth : 16 bits
    Compression mode : Lossy
    Stream size : 532 MiB (1%)
    Title : Dub License
    Language : Russian
    Service kind : Complete Main
    Default : Yes
    Forced : Yes
    Audio #2
    ID : 3
    Format : MLP FBA 16-ch
    Format/Info : Meridian Lossless Packing FBA with 16-channel presentation
    Commercial name : Dolby TrueHD with Dolby Atmos
    Codec ID : A_TRUEHD
    Duration : 1 h 56 min
    Bit rate mode : Variable
    Bit rate : 3 272 kb/s
    Maximum bit rate : 5 664 kb/s
    Channel(s) : 8 channels
    Channel layout : L R C LFE Ls Rs Lb Rb
    Sampling rate : 48.0 kHz
    Frame rate : 1 200.000 FPS (40 SPF)
    Compression mode : Lossless
    Stream size : 2.66 GiB (5%)
    Title : Original
    Language : English
    Default : No
    Forced : No
    Number of dynamic objects : 11
    Bed channel count : 1 channel
    Bed channel configuration : LFE
    Audio #3
    ID : 4
    Format : AC-3
    Format/Info : Audio Coding 3
    Commercial name : Dolby Digital
    Codec ID : A_AC3
    Duration : 1 h 56 min
    Bit rate mode : Constant
    Bit rate : 448 kb/s
    Channel(s) : 6 channels
    Channel layout : L R C LFE Ls Rs
    Sampling rate : 48.0 kHz
    Frame rate : 31.250 FPS (1536 SPF)
    Bit depth : 16 bits
    Compression mode : Lossy
    Stream size : 372 MiB (1%)
    Language : English
    Service kind : Complete Main
    Default : No
    Forced : No
    Text #1
    ID : 5
    Format : UTF-8
    Codec ID : S_TEXT/UTF8
    Codec ID/Info : UTF-8 Plain Text
    Duration : 1 h 55 min
    Bit rate : 0 b/s
    Count of elements : 19
    Stream size : 559 Bytes (0%)
    Title : Forced
    Language : Russian
    Default : Yes
    Forced : Yes
    Text #2
    ID : 6
    Format : UTF-8
    Codec ID : S_TEXT/UTF8
    Codec ID/Info : UTF-8 Plain Text
    Duration : 1 h 47 min
    Bit rate : 13 b/s
    Count of elements : 204
    Stream size : 10.3 KiB (0%)
    Title : songs
    Language : Russian
    Default : No
    Forced : No
    Text #3
    ID : 7
    Format : UTF-8
    Codec ID : S_TEXT/UTF8
    Codec ID/Info : UTF-8 Plain Text
    Duration : 1 h 55 min
    Bit rate : 93 b/s
    Count of elements : 1641
    Stream size : 79.2 KiB (0%)
    Title : Full License
    Language : Russian
    Default : No
    Forced : No
    Text #4
    ID : 8
    Format : UTF-8
    Codec ID : S_TEXT/UTF8
    Codec ID/Info : UTF-8 Plain Text
    Duration : 1 h 51 min
    Bit rate : 107 b/s
    Count of elements : 2093
    Stream size : 87.4 KiB (0%)
    Title : Full FOCS
    Language : Russian
    Default : No
    Forced : No
    Text #5
    ID : 9
    Format : UTF-8
    Codec ID : S_TEXT/UTF8
    Codec ID/Info : UTF-8 Plain Text
    Duration : 1 h 55 min
    Bit rate : 79 b/s
    Count of elements : 2244
    Stream size : 67.1 KiB (0%)
    Title : Full
    Language : English
    Default : No
    Forced : No
    Text #6
    ID : 10
    Format : UTF-8
    Codec ID : S_TEXT/UTF8
    Codec ID/Info : UTF-8 Plain Text
    Duration : 1 h 55 min
    Bit rate : 86 b/s
    Count of elements : 2439
    Stream size : 73.0 KiB (0%)
    Title : SDH
    Language : English
    Default : No
    Forced : No
    Menu
    00: 00: 00.000 : en: Chapter 01
    00: 06: 16.668 : en: Chapter 02
    00: 11: 19.679 : en: Chapter 03
    00: 16: 13.097 : en: Chapter 04
    00: 21: 28.287 : en: Chapter 05
    00: 27: 04.540 : en: Chapter 06
    00: 33: 31.885 : en: Chapter 07
    00: 38: 55.083 : en: Chapter 08
    00: 45: 53.250 : en: Chapter 09
    00: 48: 17.061 : en: Chapter 10
    00: 56: 24.339 : en: Chapter 11
    01: 03: 47.490 : en: Chapter 12
    01: 09: 16.486 : en: Chapter 13
    01: 14: 17.078 : en: Chapter 14
    01: 19: 04.615 : en: Chapter 15
    01: 24: 10.587 : en: Chapter 16
    01: 31: 51.923 : en: Chapter 17
    01: 36: 00.588 : en: Chapter 18
    01: 40: 03.247 : en: Chapter 19
    01: 46: 51.947 : en: Chapter 20
    Диск на Blu-ray.com
    Просмотр 4K HDR-контента на ПК
    Скриншоты для ознакомления



    Все одноименные релизы в Клубе
    Время раздачи: Мультитрекер (до появления первых 3-5 скачавших)

    Онлайн видео Yesterday



    Yesterday/Yesterday (2019) UHD BDRemux [H.265/2160p] [4K, HDR, 10-bit]
    Рейтинг →
     (голосов: 1, оценка 5/5, голосовать можно 1 раз )

    Другие торренты по теме:

  • Yesterday / Yesterday: Печать Люцифера (2012) [Ru / Multi] (1.0.0.1) License PROPHET
  • Yesterday / Yesterday (2019) HDRip [AD]
  • Yesterday / Yesterday (2019) BDRip [H.264 / 720p-LQ] [AD]
  • Yesterday / Yesterday (2019) BDRip [H.264 / 1080p-LQ] [AD]
  • Yesterday / Yesterday (2019) BDRip [H.264 / 1080p] [AVO] [hand made 16:9]
  • Yesterday / Yesterday (2019) BDRip [H.264 / 1080p] [AVO]
  • Yesterday / Yesterday (2019) BDRemux [H.264 / 1080p]
  • Yesterday / Yesterday (2019) BDRip [H.265] [10-bit]


    • Комментарии (0):

      Информация

      Информация

        Посетители, находящиеся в группе Гости, не могут оставлять комментарии в данной новости.

        ↓ Меню




        ↓ Опрос

        Вы добавили сайт в закладки?
        Да
        Нет


        Популярное