.
Авторизация | Регистрация

bitok.xyz

» » Короткие волны (2018) WEB-DLRip торрент скачать бесплатно


    Короткие волны (2018) WEB-DLRip торрент скачать бесплатно

    Дата: 30-10-2019, 05:00 | .torrent скачали: 0

    Короткие волны (2018) WEB-DLRipПроизводство: Россия/Кинокомпания Samolёt
    Жанр: Драма, комедия
    Режиссер: Михаил Довженко

    Актеры
    Алекс Дубас, Евгений Гришковец, Игорь Ясулович, Екатерина Волкова, Алиса Хазанова, Северия Янушаускайте, Ивар Калныньш, Анна Чурина, Алексей Макаров, Вячеслав Манучаров, Павел Баршак, Владимир Носик

    Описание

    Альманах увлекательных историй, имеющий одну общую тему – все они произошли на радио. Одни используют его как инструмент влияния, другие – для выражения чувств, а третьи – по циничному расчёту...

    Возраст: 16+ (зрителям, достигшим 16 лет)
    Дата российской премьеры: 11 апреля 2019, Кинологистика
    Релиз от: Алехаndr
    Продолжительность: 01: 23: 40
    Качество видео: WEB-DLRip
    Перевод: Не требуется (русский) iTunes
    Субтитры: Отсутствуют
    Видео: Xvid, 720x304 (2, 35: 1), ~1890 Kbps
    Аудио: AC3, 6 ch, 384 Kbps
    Общее
    Полное имя : D: Короткие волны (2018).by.Алехаndr.avi
    Формат : AVI
    Формат/Информация : Audio Video Interleave
    Профиль формата : OpenDML
    Размер файла : 1, 34 Гбайт
    Продолжительность : 1 ч. 23 м.
    Общий поток : 2287 Кбит/сек
    Программа кодирования : Lavf58.20.100
    Видео
    Идентификатор : 0
    Формат : MPEG-4 Visual
    Профиль формата : Advanced Simple@L5
    Настройки формата : BVOP2
    Параметр BVOP формата : 2
    Параметр QPel формата : Нет
    Параметр GMC формата : Без точки перехода
    Параметр матрицы формата : Default (MPEG)
    Идентификатор кодека : XVID
    Идентификатор кодека/Подсказка : XviD
    Продолжительность : 1 ч. 23 м.
    Битрейт : 1890 Кбит/сек
    Ширина : 720 пикселей
    Высота : 304 пикселя
    Соотношение сторон : 2, 35: 1
    Частота кадров : 24, 000 кадра/сек
    Цветовое пространство : YUV
    Субдискретизация насыщенности : 4: 2: 0
    Битовая глубина : 8 бит
    Тип развёртки : Прогрессивная
    Метод сжатия : С потерями
    Бит/(Пиксели*Кадры) : 0.360
    Размер потока : 1, 10 Гбайт (83%)
    Библиотека кодирования : XviD 67
    Аудио
    Идентификатор : 1
    Формат : AC-3
    Формат/Информация : Audio Coding 3
    Коммерческое название : Dolby Digital
    Идентификатор кодека : 2000
    Продолжительность : 1 ч. 23 м.
    Вид битрейта : Постоянный
    Битрейт : 384 Кбит/сек
    Каналы : 6 каналов
    ChannelLayout : L R C LFE Ls Rs
    Частота : 48, 0 КГц
    Частота кадров : 31, 250 кадров/сек (1536 SPF)
    Битовая глубина : 16 бит
    Метод сжатия : С потерями
    Размер потока : 230 Мбайт (17%)
    Выравнивание : Соединение по промежуткам
    Продолжительность промежутка : 32 мс. (0, 77 видеокадр)
    ServiceKind/String : Complete Main

    Скриншоты для ознакомления



    Все одноименные релизы в Клубе
    Время раздачи: 24/7 (круглосуточно) (до появления первых 3-5 скачавших)

    Онлайн видео Короткие волны (2018) WEB



    Короткие волны (2018) WEB-DLRip
    Рейтинг →
     (голосов: 1, оценка 5/5, голосовать можно 1 раз )

    Другие торренты по теме:

  • Кэрри Патель и др. | Pillars of Eternity. Короткие истории [4 книги] (2015) [PDF, EPUB, MOBI] [EN]
  • Борис Акунин | Нечеховская интеллигенция. Короткие истории о всяком разном (2016) [FB2]
  • Борис Акунин | Жизнь замечательных людей и зверей. Короткие истории о всяком разном (2017) [FB2]
  • Борис Акунин | Нечеховская интеллигенция. Короткие истории о всяком разном (2017) [MP3]
  • Борис Акунин | Жизнь замечательных людей и зверей. Короткие истории о всяком разном (2017) [MP3]
  • Евгения Рыбакова (сост.) | Три короткие истории из жизни сыщиков [сборник] (2018) [FB2]
  • Звездный путь: короткие походы / Star Trek: Short Trekss (2018) WEB-DL [H.264 / 1080p-LQ] (сезон 1, серии 1-3 из 4) TVShows (обновляемая)


    • Комментарии (0):

      Информация

      Информация

        Посетители, находящиеся в группе Гости, не могут оставлять комментарии в данной новости.

        ↓ Меню




        ↓ Опрос

        Вы добавили сайт в закладки?
        Да
        Нет


        Популярное