.
Авторизация | Регистрация

bitok.xyz

» » Страшные истории для рассказа в темноте / Scary Stories to Tell in the Dark (2019) BDRip [H.264 / 720p] торрент скачать бесплатно


    Страшные истории для рассказа в темноте / Scary Stories to Tell in the Dark (2019) BDRip [H.264 / 720p] торрент скачать бесплатно

    Дата: 30-10-2019, 05:00 | .torrent скачали: 0

    Страшные истории для рассказа в темноте / Scary Stories to Tell in the Dark (2019) BDRip [H.264 / 720p]Производство: США, Канада, Китай/1212 Entertainment, CBS Films
    Жанр: Ужасы, триллер
    Режиссер: Андре Овредал
    Продюсер: Гильермо дель Торо, Шон Дэниэл, Джейсон Ф. Браун

    Актеры
    Зои Маргарет Коллетти, Майкл Гарза, Гэбриел Раш, Остин Абрамс, Дин Норрис, Джил Беллоуз, Лоррейн Туссен, Остин Зажур, Натали Гэнзхорн, Кэтлин Поллард

    Описание
    Хэллоуин 1968 года. Старшеклассница Стелла, большая любительница страшных историй, и двое её друзей наряжаются в нелепые костюмы и идут гулять. Так получается, что ребята выводят из себя школьного задиру и хулигана Томми и, спасаясь от него, знакомятся с неместным парнем Рамоном, а после отправляются в старинный заброшенный особняк. Дом принадлежал семье Бэллоуз, все члены которой загадочно исчезли почти 100 лет назад, а про дочь семейства Сару до сих пор ходят жуткие легенды — якобы она может убивать, рассказывая истории. Друзья находят потайную комнату, и Стелла забирает домой книгу, где Сара писала свои рассказы, и на страницах которой этим же вечером появится новый, а хулиган Томми исчезнет без следа.

    Возраст: 16+ Зрителям, достигшим 16 лет
    Рейтинг MPAA: PG-13 Детям до 13 просмотр не желателен
    Дата мировой премьеры: 7 августа 2019
    Дата российской премьеры: 8 августа 2019, Парадиз
    Релиз от: NNMClub
    Продолжительность: 01: 47: 57
    Качество видео: BDRip 720p
    Перевод: Дублированный(iTunes)
    Субтитры: Английские
    Видео: AVC/H.264, 1280x536, 4000 Kbps, 23.976 fps
    Аудио 1 : AC-3, 6 ch, 384 Kbps | Русский
    Аудио 2 : AC-3, 6 ch, 640 Kbps | Английский
    General
    Unique ID : 152157467972856285748010434584334705743 (0x7278765EBD40F3DB002EC730E4F6244F)
    Complete name : /Volumes/Promise 2/Scary.Stories.to.Tell.in.the.Dark.BDRip.720p.NNMClub.pk.mkv
    Format : Matroska
    Format version : Version 4
    File size : 3.78 GiB
    Duration : 1h 47mn
    Overall bit rate : 5 017 Kbps
    Movie name : Scary Stories to Tell in the Dark BDRip 720p Kosatka
    Encoded date : UTC 2019-10-28 10: 48: 36
    Writing application : mkvmerge v38.0.0 (\'The Silent Type\') 64-bit
    Writing library : libebml v1.3.9 + libmatroska v1.5.2
    Video
    ID : 1
    Format : AVC
    Format/Info : Advanced Video Codec
    Format profile : High@L4.1
    Format settings : CABAC/12 Ref Frames
    Format settings, CABAC : Yes
    Format settings, ReFrames : 12 frames
    Codec ID : V_MPEG4/ISO/AVC
    Duration : 1h 47mn
    Bit rate : 4 000 Kbps
    Width : 1 280 pixels
    Height : 536 pixels
    Display aspect ratio : 2.40: 1
    Frame rate mode : Constant
    Frame rate : 23.976 (24000/1001) fps
    Color space : YUV
    Chroma subsampling : 4: 2: 0
    Bit depth : 8 bits
    Scan type : Progressive
    Bits/(Pixel*Frame) : 0.243
    Stream size : 3.01 GiB (80%)
    Writing library : x264 core 157 r2935 545de2f
    Encoding settings : cabac=1/ref=12/deblock=1: -3: -3/analyse=0x3: 0x113/me=umh/subme=9/psy=1/psy_rd=1.00: 0.00/mixed_ref=1/me_range=32/chroma_me=1/trellis=2/8x8dct=1/cqm=0/deadzone=21, 11/fast_pskip=0/chroma_qp_offset=-2/threads=17/lookahead_threads=4/sliced_threads=0/nr=0/decimate=0/interlaced=0/bluray_compat=0/constrained_intra=0/bframes=12/b_pyramid=2/b_adapt=2/b_bias=0/direct=1/weightb=0/open_gop=0/weightp=2/keyint=240/keyint_min=24/scenecut=40/intra_refresh=0/rc_lookahead=70/rc=2pass/mbtree=0/bitrate=4000/ratetol=1.0/qcomp=0.65/qpmin=0/qpmax=69/qpstep=4/cplxblur=20.0/qblur=0.5/vbv_maxrate=50000/vbv_bufsize=62000/nal_hrd=none/filler=0/ip_ratio=1.40/pb_ratio=1.30/aq=1: 1.10
    Language : English
    Default : Yes
    Forced : No
    Color range : Limited
    Color primaries : BT.709
    Transfer characteristics : BT.709
    Matrix coefficients : BT.709
    Audio #1
    ID : 2
    Format : AC-3
    Format/Info : Audio Coding 3
    Commercial name : Dolby Digital
    Codec ID : A_AC3
    Duration : 1h 47mn
    Bit rate mode : Constant
    Bit rate : 384 Kbps
    Channel(s) : 6 channels
    Channel layout : L R C LFE Ls Rs
    Sampling rate : 48.0 KHz
    Frame rate : 31.250 fps (1536 SPF)
    Bit depth : 16 bits
    Compression mode : Lossy
    Stream size : 297 MiB (8%)
    Title : Russian Dub iTunes
    Language : Russian
    Service kind : Complete Main
    Default : Yes
    Forced : No
    Audio #2
    ID : 3
    Format : AC-3
    Format/Info : Audio Coding 3
    Commercial name : Dolby Digital
    Codec ID : A_AC3
    Duration : 1h 47mn
    Bit rate mode : Constant
    Bit rate : 640 Kbps
    Channel(s) : 6 channels
    Channel layout : L R C LFE Ls Rs
    Sampling rate : 48.0 KHz
    Frame rate : 31.250 fps (1536 SPF)
    Bit depth : 16 bits
    Compression mode : Lossy
    Stream size : 494 MiB (13%)
    Title : English Original
    Language : English
    Service kind : Complete Main
    Default : No
    Forced : No
    Text
    ID : 4
    Format : UTF-8
    Codec ID : S_TEXT/UTF8
    Codec ID/Info : UTF-8 Plain Text
    Duration : 1h 39mn
    Bit rate : 45 bps
    Count of elements : 1244
    Stream size : 32.8 KiB (0%)
    Title : Full
    Language : English
    Default : No
    Forced : No
    Menu
    00: 00: 00.000 : en: 00: 00: 00.000
    00: 05: 44.386 : en: 00: 05: 44.386
    00: 13: 23.052 : en: 00: 13: 23.052
    00: 18: 52.131 : en: 00: 18: 52.131
    00: 25: 34.741 : en: 00: 25: 34.741
    00: 28: 31.168 : en: 00: 28: 31.168
    00: 36: 17.300 : en: 00: 36: 17.300
    00: 47: 06.282 : en: 00: 47: 06.282
    00: 54: 17.170 : en: 00: 54: 17.170
    00: 58: 36.304 : en: 00: 58: 36.304
    01: 02: 36.377 : en: 01: 02: 36.377
    01: 11: 04.677 : en: 01: 11: 04.677
    01: 17: 59.425 : en: 01: 17: 59.425
    01: 24: 33.902 : en: 01: 24: 33.902
    01: 29: 53.179 : en: 01: 29: 53.179
    01: 38: 30.279 : en: 01: 38: 30.279

    x264 info: frame I: 1302 Avg QP: 10.49 size: 109700
    x264 info: frame P: 31081 Avg QP: 12.59 size: 42165
    x264 info: frame B: 122922 Avg QP: 13.94 size: 14466
    x264 info: consecutive B-frames: 2.2% 2.4% 5.2% 28.1% 9.9% 16.2% 7.0% 7.7% 5.7% 4.8% 3.4% 5.0% 2.3%
    x264 info: mb I I16..4: 9.4% 78.1% 12.5%
    x264 info: mb P I16..4: 3.8% 15.3% 1.5% P16..4: 31.3% 25.7% 16.5% 0.0% 0.0% skip: 5.9%
    x264 info: mb B I16..4: 0.8% 0.9% 0.1% B16..8: 40.5% 18.6% 5.9% direct: 7.2% skip: 26.1% L0: 48.2% L1: 42.5% BI: 9.3%
    x264 info: 8x8 transform intra: 69.7% inter: 45.1%
    x264 info: coded y, uvDC, uvAC intra: 72.4% 91.5% 88.2% inter: 29.1% 39.7% 25.3%
    x264 info: i16 v, h, dc, p: 74% 9% 8% 9%
    x264 info: i8 v, h, dc, ddl, ddr, vr, hd, vl, hu: 14% 9% 17% 8% 10% 10% 10% 10% 11%
    x264 info: i4 v, h, dc, ddl, ddr, vr, hd, vl, hu: 14% 7% 9% 10% 14% 13% 12% 10% 11%
    x264 info: i8c dc, h, v, p: 59% 14% 13% 13%
    x264 info: Weighted P-Frames: Y: 3.3% UV: 1.9%
    x264 info: ref P L0: 47.6% 7.7% 17.3% 6.7% 5.5% 3.7% 3.3% 2.2% 2.3% 1.4% 1.3% 1.0% 0.1% 0.0%
    x264 info: ref B L0: 61.8% 14.6% 8.4% 4.4% 3.2% 2.5% 1.9% 1.2% 1.3% 0.6% 0.2%
    x264 info: ref B L1: 91.0% 9.0%
    x264 info: kb/s: 3991.11

    Скриншоты для ознакомления



    Все одноименные релизы в Клубе
    Время раздачи: 24/7 (круглосуточно) (до появления первых 3-5 скачавших)

    Онлайн видео Страшные истории для рассказа в темноте



    Страшные истории для рассказа в темноте/Scary Stories to Tell in the Dark (2019) BDRip [H.264/720p]
    Рейтинг →
     (голосов: 1, оценка 4/5, голосовать можно 1 раз )

    Другие торренты по теме:

  • Страшные истории v3.4.2 Mod [Ru]
  • Страшные истории для рассказа в темноте / Scary Stories to Tell in the Dark (2019) WEB-DL [H.264 / 1080p-LQ]
  • Страшные истории для рассказа в темноте / Scary Stories to Tell in the Dark (2019) WEB-DLRip
  • Страшные истории для рассказа в темноте / Scary Stories to Tell in the Dark (2019) WEB-DLRip [H.264]
  • Элвин Шварц | Страшные истории для рассказа в темноте [сборник] (2019) [FB2]
  • Страшные истории для рассказа в темноте / Scary Stories to Tell in the Dark (2019) WEB-DLRip [H.265] [10-bit] [PR]
  • Страшные истории для рассказа в темноте / Scary Stories to Tell in the Dark (2019) HDRip
  • Страшные истории для рассказа в темноте / Scary Stories to Tell in the Dark (2019) BDRip [H.264 / 1080p] [PR]


    • Комментарии (0):

      Информация

      Информация

        Посетители, находящиеся в группе Гости, не могут оставлять комментарии в данной новости.

        ↓ Меню




        ↓ Опрос

        Вы добавили сайт в закладки?
        Да
        Нет


        Популярное