.
Авторизация | Регистрация

bitok.xyz

» » Форсаж: Хоббс и Шоу / Fast & Furious Presents: Hobbs & Shaw (2019) BDRemux [H.264 / 1080p] торрент скачать бесплатно


    Форсаж: Хоббс и Шоу / Fast & Furious Presents: Hobbs & Shaw (2019) BDRemux [H.264 / 1080p] торрент скачать бесплатно

    Дата: 30-10-2019, 05:00 | .torrent скачали: 0

    Форсаж: Хоббс и Шоу / Fast & Furious Presents: Hobbs & Shaw (2019) BDRemux [H.264 / 1080p]Производство: Великобритания, США/Universal Pictures
    Жанр: Боевик, приключения
    Режиссер: Дэвид Литч

    Актеры
    Дуэйн Джонсон, Джейсон Стэйтем, Идрис Эльба, Ванесса Кирби, Хелен Миррен, Эйса Гонсалес, Эдди Марсан, Eliana Sua, Клифф Кёртис, Lori Pelenise Tuisano

    Описание

    Люк Хоббс - американский элитный спецагент, он любит удобную спортивную одежду, большие пикапы и здоровое питание. Декард Шоу - британский пижон, бывший сотрудник разведки, предпочитает дорогие костюмы, спортивные авто и длинноногих красоток. Эти двое ненавидят друг друга. Но если кто-то угрожает их семьям, они готовы пойти на все. Даже на работу в команде.

    Возраст: 12+ (зрителям, достигшим 12 лет)
    Рейтинг MPAA: PG-13 (детям до 13 лет просмотр нежелателен)
    Дата мировой премьеры: 13 июля 2019
    Дата российской премьеры: 1 августа 2019, UPI
    Продолжительность: 02: 16: 42
    Качество видео: BDRemux 1080р
    Перевод: Дублированный (iTunes)
    Субтитры: Русские (форс.), Английские
    Видео: AVC/H.264, 1920х1080, ~28.7 Мbps
    Аудио: AC3, 6 ch, 384 Kbps - Русский
    Аудио: TrueHD, 8 ch, 3141 Kbps - Английский
    Аудио: AC3, 6 ch, 448 Kbps - Английский
    никальный идентификатор : 12707459865025580705280077905167074120 (0x98F5E24ACC8DFCD488BA7CAACCF4348)
    Полное имя : E: Fast.and.Furious.Presents.Hobbs.and.Shaw.2019.BDREMUX.1080p.mkv
    Формат : Matroska
    Версия формата : Version 4
    Размер файла : 31, 2 Гбайт
    Продолжительность : 2 ч. 16 м.
    Режим общего битрейта : Переменный
    Общий поток : 32, 7 Мбит/сек
    Дата кодирования : UTC 2019-10-28 07: 32: 28
    Программа кодирования : mkvmerge v37.0.0 (\'Leave It\') 64-bit
    Библиотека кодирования : libebml v1.3.9 + libmatroska v1.5.2
    Видео
    Идентификатор : 1
    Формат : AVC
    Формат/Информация : Advanced Video Codec
    Профиль формата : High@L4.1
    Настройки формата : CABAC/4 Ref Frames
    Параметр CABAC формата : Да
    Параметр RefFrames формата : 4 кадра
    Идентификатор кодека : V_MPEG4/ISO/AVC
    Продолжительность : 2 ч. 16 м.
    Вид битрейта : Переменный
    Битрейт : 28, 7 Мбит/сек
    Максимальный битрейт : 37, 3 Мбит/сек
    Ширина : 1920 пикселей
    Высота : 1080 пикселей
    Соотношение сторон : 16: 9
    Режим частоты кадров : Постоянный
    Частота кадров : 23, 976 (24000/1001) кадра/сек
    Цветовое пространство : YUV
    Субдискретизация насыщенности : 4: 2: 0
    Битовая глубина : 8 бит
    Тип развёртки : Прогрессивная
    Бит/(Пиксели*Кадры) : 0.576
    Размер потока : 27, 4 Гбайт (88%)
    Язык : English
    Default : Да
    Forced : Нет
    Аудио #1
    Идентификатор : 2
    Формат : AC-3
    Формат/Информация : Audio Coding 3
    Коммерческое название : Dolby Digital
    Идентификатор кодека : A_AC3
    Продолжительность : 2 ч. 16 м.
    Вид битрейта : Постоянный
    Битрейт : 384 Кбит/сек
    Каналы : 6 каналов
    ChannelLayout : L R C LFE Ls Rs
    Частота : 48, 0 КГц
    Частота кадров : 31, 250 кадров/сек (1536 SPF)
    Метод сжатия : С потерями
    Размер потока : 375 Мбайт (1%)
    Заголовок : iTunes
    Язык : Russian
    ServiceKind/String : Complete Main
    Default : Да
    Forced : Да
    Аудио #2
    Идентификатор : 3
    Формат : MLP FBA 16-ch
    Формат/Информация : Meridian Lossless Packing FBA with 16-channel presentation
    Коммерческое название : Dolby TrueHD with Dolby Atmos
    Идентификатор кодека : A_TRUEHD
    Продолжительность : 2 ч. 16 м.
    Вид битрейта : Переменный
    Битрейт : 3141 Кбит/сек
    Максимальный битрейт : 5394 Кбит/сек
    Каналы : 8 каналов
    ChannelLayout : L R C LFE Ls Rs Lb Rb
    Частота : 48, 0 КГц
    Частота кадров : 1200, 000 кадров/сек (40 SPF)
    Метод сжатия : Без потерь
    Размер потока : 3, 00 Гбайт (10%)
    Заголовок : Original
    Язык : English
    Default : Нет
    Forced : Нет
    NumberOfDynamicObjects : 11
    BedChannelCount/String : 1 канал
    BedChannelConfiguration : LFE
    Аудио #3
    Идентификатор : 4
    Формат : AC-3
    Формат/Информация : Audio Coding 3
    Коммерческое название : Dolby Digital
    Идентификатор кодека : A_AC3
    Продолжительность : 2 ч. 16 м.
    Вид битрейта : Постоянный
    Битрейт : 448 Кбит/сек
    Каналы : 6 каналов
    ChannelLayout : L R C LFE Ls Rs
    Частота : 48, 0 КГц
    Частота кадров : 31, 250 кадров/сек (1536 SPF)
    Метод сжатия : С потерями
    Размер потока : 438 Мбайт (1%)
    Заголовок : Original
    Язык : English
    ServiceKind/String : Complete Main
    Default : Нет
    Forced : Нет
    Текст #1
    Идентификатор : 5
    Формат : UTF-8
    Идентификатор кодека : S_TEXT/UTF8
    Идентификатор кодека/Информация : UTF-8 Plain Text
    Продолжительность : 2 ч. 4 м.
    Битрейт : 1 бит/сек
    ElementCount : 47
    Размер потока : 1, 38 Кбайт (0%)
    Заголовок : Forced
    Язык : Russian
    Default : Да
    Forced : Да
    Текст #2
    Идентификатор : 6
    Формат : UTF-8
    Идентификатор кодека : S_TEXT/UTF8
    Идентификатор кодека/Информация : UTF-8 Plain Text
    Продолжительность : 2 ч. 1 м.
    Битрейт : 61 бит/сек
    ElementCount : 1947
    Размер потока : 54, 9 Кбайт (0%)
    Заголовок : Full
    Язык : English
    Default : Нет
    Forced : Нет
    Меню
    00: 00: 00.000 : en: 00: 00: 00.000
    00: 04: 58.131 : en: 00: 04: 58.131
    00: 13: 43.489 : en: 00: 13: 43.489
    00: 19: 21.452 : en: 00: 19: 21.452
    00: 26: 45.979 : en: 00: 26: 45.979
    00: 35: 41.514 : en: 00: 35: 41.514
    00: 40: 13.244 : en: 00: 40: 13.244
    00: 46: 22.029 : en: 00: 46: 22.029
    00: 51: 34.216 : en: 00: 51: 34.216
    00: 57: 51.802 : en: 00: 57: 51.802
    01: 01: 53.251 : en: 01: 01: 53.251
    01: 08: 45.163 : en: 01: 08: 45.163
    01: 14: 22.833 : en: 01: 14: 22.833
    01: 19: 48.075 : en: 01: 19: 48.075
    01: 24: 59.261 : en: 01: 24: 59.261
    01: 32: 58.198 : en: 01: 32: 58.198
    01: 38: 48.923 : en: 01: 38: 48.923
    01: 46: 32.970 : en: 01: 46: 32.970
    01: 53: 29.594 : en: 01: 53: 29.594
    02: 01: 14.809 : en: 02: 01: 14.809

    Скриншоты для ознакомления



    Все одноименные релизы в Клубе
    Время раздачи: 24/7 (до появления первых 3-5 скачавших)

    Онлайн видео Форсаж: Хоббс и Шоу



    Форсаж: Хоббс и Шоу/Fast & Furious Presents: Hobbs & Shaw (2019) BDRemux [H.264/1080p]
    Рейтинг →
     (голосов: 1, оценка 3/5, голосовать можно 1 раз )

    Другие торренты по теме:

  • Форсаж: Хоббс и Шоу / Fast & Furious Presents: Hobbs & Shaw (2019) CAMRip [H.264 / 720p-LQ] [AD]
  • Форсаж: Хоббс и Шоу / Fast & Furious Presents: Hobbs & Shaw (2019) CAMRip [AD]
  • Форсаж: Хоббс и Шоу / Fast & Furious Presents: Hobbs & Shaw (2019) WEBRip [H.264 / 1080p] [EN / KOR Sub] [PR]
  • Форсаж: Хоббс и Шоу / Fast & Furious Presents: Hobbs & Shaw (2019) WEBRip [H.264] [UKR, EN / KOR Sub] [Line]
  • Форсаж: Хоббс и Шоу / Fast & Furious Presents: Hobbs & Shaw (2019) WEBRip [UKR / KOR Sub] [Line]
  • Форсаж: Хоббс и Шоу / Fast & Furious Presents: Hobbs & Shaw (2019) WEBRip [H.264 / 1080p-LQ] [UKR, EN / KOR Sub] [Line]
  • Форсаж: Хоббс и Шоу / Fast & Furious Presents: Hobbs & Shaw (2019) WEBRip [H.264 / 1080p-LQ] [Line] [AD]
  • Форсаж: Хоббс и Шоу / Fast & Furious Presents: Hobbs & Shaw (2019) WEBRip [Line] [AD]


    • Комментарии (0):

      Информация

      Информация

        Посетители, находящиеся в группе Гости, не могут оставлять комментарии в данной новости.

        ↓ Меню




        ↓ Опрос

        Вы добавили сайт в закладки?
        Да
        Нет


        Популярное