.
Авторизация | Регистрация

bitok.xyz

» » Форсаж: Хоббс и Шоу / Fast & Furious Presents: Hobbs & Shaw (2019) BDRip [H.265 / 1080p-LQ] [10-bit] торрент скачать бесплатно


    Форсаж: Хоббс и Шоу / Fast & Furious Presents: Hobbs & Shaw (2019) BDRip [H.265 / 1080p-LQ] [10-bit] торрент скачать бесплатно

    Дата: 30-10-2019, 05:00 | .torrent скачали: 0

    Форсаж: Хоббс и Шоу / Fast & Furious Presents: Hobbs & Shaw (2019) BDRip [H.265 / 1080p-LQ] [10-bit]Производство: Великобритания, США/Universal Pictures
    Жанр: Боевик, приключения
    Режиссер: Дэвид Литч

    Актеры
    Дуэйн Джонсон, Джейсон Стэйтем, Идрис Эльба, Ванесса Кирби, Хелен Миррен, Эйса Гонсалес, Эдди Марсан, Eliana Sua, Клифф Кёртис, Lori Pelenise Tuisano

    Описание

    Люк Хоббс - американский элитный спецагент, он любит удобную спортивную одежду, большие пикапы и здоровое питание. Декард Шоу - британский пижон, бывший сотрудник разведки, предпочитает дорогие костюмы, спортивные авто и длинноногих красоток. Эти двое ненавидят друг друга. Но если кто-то угрожает их семьям, они готовы пойти на все. Даже на работу в команде.

    Возраст: 12+ (зрителям, достигшим 12 лет)
    Рейтинг MPAA: PG-13 (детям до 13 лет просмотр нежелателен)
    Дата мировой премьеры: 13 июля 2019
    Дата российской премьеры: 1 августа 2019, UPI
    Продолжительность: 02: 16: 42
    Качество видео: BDRip 1080р
    Перевод: Дублированный (iTunes)
    Субтитры: Русские (форс.), Английские
    Видео: HEVC/H.265, 1920х802, ~3922 Kbps
    Аудио: AC3, 6 ch, 384 Kbps - Русский
    Аудио: AC3, 6 ch, 640 Kbps - Английский
    Уникальный идентификатор : 78234047129799054488133912948331209652 (0x3ADB5453CE819E56928443B2277B63B4)
    Полное имя : D: Новая папкаFast.and.Furious.Presents.Hobbs.and.Shaw.2019.BDRip.1080p.HDR.mkv
    Формат : Matroska
    Версия формата : Version 4
    Размер файла : 4, 73 Гбайт
    Продолжительность : 2 ч. 16 м.
    Общий поток : 4948 Кбит/сек
    Дата кодирования : UTC 2019-10-26 13: 48: 00
    Программа кодирования : mkvmerge v37.0.0 (\'Leave It\') 64-bit
    Библиотека кодирования : libebml v1.3.9 + libmatroska v1.5.2
    Видео
    Идентификатор : 1
    Формат : HEVC
    Формат/Информация : High Efficiency Video Coding
    Профиль формата : Main10@L5.1@High
    HDR_Format/String : SMPTE ST 2086, HDR10 compatible
    Идентификатор кодека : V_MPEGH/ISO/HEVC
    Продолжительность : 2 ч. 16 м.
    Битрейт : 3922 Кбит/сек
    Ширина : 1920 пикселей
    Высота : 802 пикселя
    Соотношение сторон : 2, 40: 1
    Режим частоты кадров : Постоянный
    Частота кадров : 23, 976 (24000/1001) кадра/сек
    Цветовое пространство : YUV
    Субдискретизация насыщенности : 4: 2: 0
    Битовая глубина : 10 бит
    Бит/(Пиксели*Кадры) : 0.106
    Размер потока : 3, 75 Гбайт (79%)
    Библиотека кодирования : x265 3.0_Au+18-768ab38fd5fd: Windowsclang 8.0.064 bit 10bit
    Настройки программы : cpuid=1111039/frame-threads=13/numa-pools=8/wpp/no-pmode/no-pme/no-psnr/no-ssim/log-level=3/input-csp=1/input-res=1920x802/interlace=0/total-frames=0/level-idc=51/high-tier=1/uhd-bd=0/ref=5/allow-non-conformance/repeat-t_heads/annexb/no-aud/no-hrd/info/hash=0/no-temporal-layers/no-open-gop/min-keyint=24/keyint=240/gop-lookahead=0/bframes=9/b-adapt=2/b-pyramid/bframe-bias=0/rc-lookahead=60/lookahead-slices=5/scenecut=40/radl=0/no-splice/no-intra-refresh/ctu=64/min-cu-size=8/no-rect/no-amp/max-tu-size=32/tu-inter-depth=1/tu-intra-depth=1/limit-tu=0/rdoq-level=0/dynamic-rd=0.00/no-ssim-rd/signhide/no-tskip/nr-intra=0/nr-inter=0/no-constrained-intra/strong-intra-smoothing/max-merge=2/limit-refs=3/no-limit-modes/me=2/subme=7/merange=57/temporal-mvp/weightp/no-weightb/no-analyze-src-pics/deblock=-3: -3/sao/no-sao-non-deblock/rd=2/no-early-skip/rskip/fast-intra/no-tskip-fast/no-cu-lossless/no-b-intra/no-splitrd-skip/rdpenalty=0/psy-rd=2.00/psy-rdoq=0.00/no-rd-refine/no-lossless/cbqpoffs=0/crqpoffs=0/rc=crf/crf=16.8/qcomp=0.70/qpstep=4/stats-write=0/stats-read=0/vbv-maxrate=160000/vbv-bufsize=160000/vbv-init=0.9/crf-max=0.0/crf-min=0.0/ipratio=1.40/pbratio=1.30/aq-mode=2/aq-strength=1.00/cutree/zone-count=0/no-strict-cbr/qg-size=32/no-rc-grain/qpmax=69/qpmin=0/no-const-vbv/sar=1/overscan=0/videoformat=5/range=0/colorprim=9/transfer=16/colormatrix=9/chromaloc=0/display-window=0/master-display=G(13250, 34500)B(7500, 3000)R(34000, 16000)WP(15635, 16450)L(40000000, 50)/max-cll=1000, 419/min-luma=0/max-luma=1023/log2-max-poc-lsb=8/vui-timing-info/vui-hrd-info/slices=1/no-opt-qp-pps/no-opt-ref-list-length-pps/no-multi-pass-opt-rps/scenecut-bias=0.05/no-opt-cu-delta-qp/no-aq-motion/hdr/no-hdr-opt/no-dhdr10-opt/no-idr-recovery-sei/analysis-reuse-level=5/scale-factor=0/refine-intra=0/refine-inter=0/refine-mv=0/refine-ctu-distortion=0/no-limit-sao/ctu-info=0/no-lowpass-dct/refine-analysis-type=-658066757/copy-pic=1/max-ausize-factor=1.0/no-dynamic-refine/no-single-sei/no-hevc-aq/no-svt/qp-adaptation-range=1.00
    Язык : English
    Default : Да
    Forced : Нет
    Цветовой диапазон : Limited
    Основные цвета : BT.2020
    Характеристики трансфера : PQ
    Коэффициенты матрицы : BT.2020 non-constant
    MasteringDisplay_ColorPrimaries : Display P3
    MasteringDisplay_Luminance : min: 0.0050 cd/m2, max: 4000 cd/m2
    MaxCLL : 1000 cd/m2
    MaxFALL : 419 cd/m2
    Аудио #1
    Идентификатор : 2
    Формат : AC-3
    Формат/Информация : Audio Coding 3
    Коммерческое название : Dolby Digital
    Идентификатор кодека : A_AC3
    Продолжительность : 2 ч. 16 м.
    Вид битрейта : Постоянный
    Битрейт : 384 Кбит/сек
    Каналы : 6 каналов
    ChannelLayout : L R C LFE Ls Rs
    Частота : 48, 0 КГц
    Частота кадров : 31, 250 кадров/сек (1536 SPF)
    Метод сжатия : С потерями
    Размер потока : 375 Мбайт (8%)
    Заголовок : iTunes
    Язык : Russian
    ServiceKind/String : Complete Main
    Default : Нет
    Forced : Да
    Аудио #2
    Идентификатор : 3
    Формат : AC-3
    Формат/Информация : Audio Coding 3
    Коммерческое название : Dolby Digital
    Идентификатор кодека : A_AC3
    Продолжительность : 2 ч. 16 м.
    Вид битрейта : Постоянный
    Битрейт : 640 Кбит/сек
    Каналы : 6 каналов
    ChannelLayout : L R C LFE Ls Rs
    Частота : 48, 0 КГц
    Частота кадров : 31, 250 кадров/сек (1536 SPF)
    Метод сжатия : С потерями
    Размер потока : 626 Мбайт (13%)
    Заголовок : Original
    Язык : English
    ServiceKind/String : Complete Main
    Default : Да
    Forced : Нет
    Текст #1
    Идентификатор : 4
    Формат : UTF-8
    Идентификатор кодека : S_TEXT/UTF8
    Идентификатор кодека/Информация : UTF-8 Plain Text
    Продолжительность : 2 ч. 4 м.
    Битрейт : 1 бит/сек
    ElementCount : 48
    Размер потока : 1, 42 Кбайт (0%)
    Заголовок : Forced
    Язык : Russian
    Default : Да
    Forced : Да
    Текст #2
    Идентификатор : 5
    Формат : UTF-8
    Идентификатор кодека : S_TEXT/UTF8
    Идентификатор кодека/Информация : UTF-8 Plain Text
    Продолжительность : 2 ч. 1 м.
    Битрейт : 61 бит/сек
    ElementCount : 1947
    Размер потока : 54, 9 Кбайт (0%)
    Заголовок : Full
    Язык : English
    Default : Нет
    Forced : Нет
    Меню
    00: 00: 00.000 : en: Chapter 01
    00: 04: 58.131 : en: Chapter 02
    00: 13: 43.489 : en: Chapter 03
    00: 19: 21.452 : en: Chapter 04
    00: 26: 45.979 : en: Chapter 05
    00: 35: 41.514 : en: Chapter 06
    00: 40: 13.244 : en: Chapter 07
    00: 46: 22.029 : en: Chapter 08
    00: 51: 34.216 : en: Chapter 09
    00: 57: 51.802 : en: Chapter 10
    01: 01: 53.251 : en: Chapter 11
    01: 08: 45.163 : en: Chapter 12
    01: 14: 22.833 : en: Chapter 13
    01: 19: 48.075 : en: Chapter 14
    01: 24: 59.261 : en: Chapter 15
    01: 32: 58.198 : en: Chapter 16
    01: 38: 48.923 : en: Chapter 17
    01: 46: 32.970 : en: Chapter 18
    01: 53: 29.594 : en: Chapter 19
    02: 01: 14.809 : en: Chapter 20

    Скриншоты для ознакомления



    Все одноименные релизы в Клубе
    Время раздачи: 24/7 (до появления первых 3-5 скачавших)

    Онлайн видео Форсаж: Хоббс и Шоу



    Форсаж: Хоббс и Шоу/Fast & Furious Presents: Hobbs & Shaw (2019) BDRip [H.265/1080p-LQ] [10-bit]
    Рейтинг →
     (голосов: 1, оценка 3/5, голосовать можно 1 раз )

    Другие торренты по теме:

  • Форсаж: Хоббс и Шоу / Fast & Furious Presents: Hobbs & Shaw (2019) CAMRip [H.264 / 720p-LQ] [AD]
  • Форсаж: Хоббс и Шоу / Fast & Furious Presents: Hobbs & Shaw (2019) CAMRip [AD]
  • Форсаж: Хоббс и Шоу / Fast & Furious Presents: Hobbs & Shaw (2019) WEBRip [H.264 / 1080p] [EN / KOR Sub] [PR]
  • Форсаж: Хоббс и Шоу / Fast & Furious Presents: Hobbs & Shaw (2019) WEBRip [H.264] [UKR, EN / KOR Sub] [Line]
  • Форсаж: Хоббс и Шоу / Fast & Furious Presents: Hobbs & Shaw (2019) WEBRip [UKR / KOR Sub] [Line]
  • Форсаж: Хоббс и Шоу / Fast & Furious Presents: Hobbs & Shaw (2019) WEBRip [H.264 / 1080p-LQ] [UKR, EN / KOR Sub] [Line]
  • Форсаж: Хоббс и Шоу / Fast & Furious Presents: Hobbs & Shaw (2019) WEBRip [H.264 / 1080p-LQ] [Line] [AD]
  • Форсаж: Хоббс и Шоу / Fast & Furious Presents: Hobbs & Shaw (2019) WEBRip [Line] [AD]


    • Комментарии (0):

      Информация

      Информация

        Посетители, находящиеся в группе Гости, не могут оставлять комментарии в данной новости.

        ↓ Меню




        ↓ Опрос

        Вы добавили сайт в закладки?
        Да
        Нет


        Популярное