.
Авторизация | Регистрация

bitok.xyz

» » Ангелы Чарли / Charlies Angels (2000) UHD BDRemux [H.265 / 2160p] [4K, HDR, 10-bit] торрент скачать бесплатно


    Ангелы Чарли / Charlies Angels (2000) UHD BDRemux [H.265 / 2160p] [4K, HDR, 10-bit] торрент скачать бесплатно

    Дата: 30-10-2019, 05:00 | .torrent скачали: 0

    Ангелы Чарли / Charlies Angels (2000) UHD BDRemux [H.265 / 2160p] [4K, HDR, 10-bit]Производство: США, Германия/Columbia Pictures
    Жанр: боевик, триллер, комедия, криминал, приключения
    Режиссер: МакДжи

    Актеры
    Кэмерон Диас, Дрю Бэрримор, Люси Лью, Билл Мюррей, Сэм Рокуэлл, Келли Линч, Тим Карри, Криспин Гловер, Мэтт ЛеБлан, ЛЛ Кул Джей

    Описание

    Ангелы Чарли — суперсекретное элитное спецподразделение, которому доверяют только невыполнимые задания. С помощью новейших технологий, современного оружия, боевых искусств и убийственного женского очарования Ангелы Чарли творят чудеса. Но настоящим испытанием станет лишь это последнее задание…

    Возраст: 12+ (зрителям, достигшим 12 лет)
    Рейтинг MPAA: PG-13 (детям до 13 лет просмотр нежелателен)
    Продолжительность: 01: 38: 24
    Качество видео: UHD BDRemux
    Перевод: Дублированный
    Субтитры: русские (forced, full), английские
    Видео: HEVC/H.265, 3840x2160, ~53.9 mbps
    Аудио: AC3, 6 ch, 640 kbps, Русский (DUB)
    Аудио: TrueHD, 8 ch, 3655 kbps, Английский
    Аудио: AC3, 6 ch, 640 kbps, Английский
    Общее
    Уникальный идентификатор : 139873719827185344242134858234443600382 (0x693AB2D3D501BECE8E24B8BF7B9411FE)
    Полное имя : C: UsersADMINDownloadsCharlies.Angels.2000.BDREMUX.2160p.HDR.mkv
    Формат : Matroska
    Версия формата : Version 4
    Размер файла : 40, 5 Гбайт
    Продолжительность : 1 ч. 38 м.
    Режим общего битрейта : Переменный
    Общий поток : 58, 9 Мбит/сек
    Название фильма : Charlies Angels 2000 from селезень
    Дата кодирования : UTC 2019-10-23 18: 51: 30
    Программа кодирования : mkvmerge v22.0.0 (\'At The End Of The World\') 64-bit
    Библиотека кодирования : libebml v1.3.5 + libmatroska v1.4.8
    Видео
    Идентификатор : 1
    Формат : HEVC
    Формат/Информация : High Efficiency Video Coding
    Профиль формата : Main10@L5.1@High
    HDR_Format/String : SMPTE ST 2086, HDR10 compatible
    Идентификатор кодека : V_MPEGH/ISO/HEVC
    Продолжительность : 1 ч. 38 м.
    Битрейт : 53, 9 Мбит/сек
    Ширина : 3840 пикселей
    Высота : 2160 пикселей
    Соотношение сторон : 16: 9
    Режим частоты кадров : Постоянный
    Частота кадров : 23, 976 (24000/1001) кадра/сек
    Цветовое пространство : YUV
    Субдискретизация насыщенности : 4: 2: 0 (Type 2)
    Битовая глубина : 10 бит
    Бит/(Пиксели*Кадры) : 0.271
    Размер потока : 37, 0 Гбайт (92%)
    Язык : English
    Default : Да
    Forced : Нет
    Цветовой диапазон : Limited
    Основные цвета : BT.2020
    Характеристики трансфера : PQ
    Коэффициенты матрицы : BT.2020 non-constant
    MasteringDisplay_ColorPrimaries : Display P3
    MasteringDisplay_Luminance : min: 0.0050 cd/m2, max: 4000 cd/m2
    MaxCLL : 3991 cd/m2
    MaxFALL : 1021 cd/m2
    Аудио #1
    Идентификатор : 2
    Формат : AC-3
    Формат/Информация : Audio Coding 3
    Коммерческое название : Dolby Digital
    Идентификатор кодека : A_AC3
    Продолжительность : 1 ч. 38 м.
    Вид битрейта : Постоянный
    Битрейт : 640 Кбит/сек
    Каналы : 6 каналов
    ChannelLayout : L R C LFE Ls Rs
    Частота : 48, 0 КГц
    Частота кадров : 31, 250 кадров/сек (1536 SPF)
    Метод сжатия : С потерями
    Размер потока : 450 Мбайт (1%)
    Заголовок : Dub License
    Язык : Russian
    ServiceKind/String : Complete Main
    Default : Да
    Forced : Да
    Аудио #2
    Идентификатор : 3
    Формат : MLP FBA 16-ch
    Формат/Информация : Meridian Lossless Packing FBA with 16-channel presentation
    Коммерческое название : Dolby TrueHD with Dolby Atmos
    Идентификатор кодека : A_TRUEHD
    Продолжительность : 1 ч. 38 м.
    Вид битрейта : Переменный
    Битрейт : 3655 Кбит/сек
    Максимальный битрейт : 6054 Кбит/сек
    Каналы : 8 каналов
    ChannelLayout : L R C LFE Ls Rs Lb Rb
    Частота : 48, 0 КГц
    Частота кадров : 1200, 000 кадров/сек (40 SPF)
    Метод сжатия : Без потерь
    Размер потока : 2, 51 Гбайт (6%)
    Заголовок : Original
    Язык : English
    Default : Нет
    Forced : Нет
    NumberOfDynamicObjects : 11
    BedChannelCount/String : 1 канал
    BedChannelConfiguration : LFE
    Аудио #3
    Идентификатор : 4
    Формат : AC-3
    Формат/Информация : Audio Coding 3
    Коммерческое название : Dolby Digital
    Идентификатор кодека : A_AC3
    Продолжительность : 1 ч. 38 м.
    Вид битрейта : Постоянный
    Битрейт : 640 Кбит/сек
    Каналы : 6 каналов
    ChannelLayout : L R C LFE Ls Rs
    Частота : 48, 0 КГц
    Частота кадров : 31, 250 кадров/сек (1536 SPF)
    Метод сжатия : С потерями
    Размер потока : 450 Мбайт (1%)
    Язык : English
    ServiceKind/String : Complete Main
    Default : Нет
    Forced : Нет
    Текст #1
    Идентификатор : 5
    Формат : UTF-8
    Идентификатор кодека : S_TEXT/UTF8
    Идентификатор кодека/Информация : UTF-8 Plain Text
    Продолжительность : 1 ч. 8 м.
    Битрейт : 0 бит/сек
    ElementCount : 6
    Размер потока : 112 байт (0%)
    Заголовок : Forced
    Язык : Russian
    Default : Да
    Forced : Да
    Текст #2
    Идентификатор : 6
    Формат : UTF-8
    Идентификатор кодека : S_TEXT/UTF8
    Идентификатор кодека/Информация : UTF-8 Plain Text
    Продолжительность : 1 ч. 31 м.
    Битрейт : 71 бит/сек
    ElementCount : 940
    Размер потока : 48, 1 Кбайт (0%)
    Заголовок : Full
    Язык : Russian
    Default : Нет
    Forced : Нет
    Текст #3
    Идентификатор : 7
    Формат : UTF-8
    Идентификатор кодека : S_TEXT/UTF8
    Идентификатор кодека/Информация : UTF-8 Plain Text
    Продолжительность : 1 ч. 31 м.
    Битрейт : 38 бит/сек
    ElementCount : 880
    Размер потока : 25, 8 Кбайт (0%)
    Заголовок : Full
    Язык : English
    Default : Нет
    Forced : Нет
    Меню
    00: 00: 00.000 : en: 00: 00: 00.000
    00: 06: 55.624 : en: 00: 06: 55.624
    00: 08: 17.205 : en: 00: 08: 17.205
    00: 11: 32.525 : en: 00: 11: 32.525
    00: 15: 05.905 : en: 00: 15: 05.905
    00: 23: 14.685 : en: 00: 23: 14.685
    00: 31: 17.250 : en: 00: 31: 17.250
    00: 37: 25.994 : en: 00: 37: 25.994
    00: 48: 38.749 : en: 00: 48: 38.749
    00: 55: 38.919 : en: 00: 55: 38.919
    01: 00: 44.641 : en: 01: 00: 44.641
    01: 03: 02.737 : en: 01: 03: 02.737
    01: 09: 22.992 : en: 01: 09: 22.992
    01: 15: 42.121 : en: 01: 15: 42.121
    01: 23: 08.233 : en: 01: 23: 08.233
    01: 28: 14.956 : en: 01: 28: 14.956

    Скриншоты для ознакомления



    Все одноименные релизы в Клубе
    Время раздачи: c 5 до 19 мск (до появления первых 3-5 скачавших)

    Онлайн видео Ангелы Чарли



    Ангелы Чарли/Charlies Angels (2000) UHD BDRemux [H.265/2160p] [4K, HDR, 10-bit]
    Рейтинг →
     (голосов: 1, оценка 5/5, голосовать можно 1 раз )

    Другие торренты по теме:

  • Ангелы Чарли / Charlies Angels (2000) HDRip [H.264] [Расширенная версия]
  • Ангелы Чарли / Charlies Angels (2011) WEB-DLRip (сезон 1, серии 1-8 из 8) SET
  • Brian Tyler - Charlies Angels / Ангелы Чарли (Original Motion Picture Score) (2019) [FLAC|Lossless|WEB-DL|tracks]<Soundtrack>
  • Brian Tyler, VA - Charlies Angels / Ангелы Чарли (Original Score + Original Soundtrack) (2019) [MP3|320 кб / с] <Soundtrack, Score>
  • Brian Tyler, VA - Charlies Angels / Ангелы Чарли (Original Score + Original Soundtrack) (2019) [FLAC2.0|48 / 44.1 / 24|tracks|WEB-DL] <Soundtrack, Score>


    • Комментарии (0):

      Информация

      Информация

        Посетители, находящиеся в группе Гости, не могут оставлять комментарии в данной новости.

        ↓ Меню




        ↓ Опрос

        Вы добавили сайт в закладки?
        Да
        Нет


        Популярное