.
Авторизация | Регистрация

bitok.xyz

» » 007: СПЕКТР / Spectre (2015) UHD BDRemux [H.265 / 2160p] [4K, HDR, 10-bit] торрент скачать бесплатно


    007: СПЕКТР / Spectre (2015) UHD BDRemux [H.265 / 2160p] [4K, HDR, 10-bit] торрент скачать бесплатно

    Дата: 30-10-2019, 05:00 | .torrent скачали: 1

    007: СПЕКТР / Spectre (2015) UHD BDRemux [H.265 / 2160p] [4K, HDR, 10-bit]Производство: Великобритания, США/B24, Columbia Pictures, Danjaq
    Жанр: Боевик, Триллер, Приключения
    Режиссер: Сэм Мендес

    Актеры
    Дэниэл Крэйг, Кристоф Вальц, Леа Сейду, Рэйф Файнс, Моника Беллуччи, Бен Уишоу, Наоми Харрис, Дэйв Батиста, Эндрю Скотт, Рори Киннер

    Описание

    Зашифрованное послание из неизвестного источника выводит Бонда на след зловещей глобальной организации под кодовым названием СПЕКТР, в то время как М пытается спасти секретную разведывательную службу от ликвидации.

    Возраст: 16+ (зрителям, достигшим 16 лет)
    Рейтинг MPAA: PG-13 (детям до 13 лет просмотр нежелателен)
    Релиз от: Селезень
    Продолжительность: 02: 28: 08
    Качество видео: UHD BDRemux (HDR)
    Перевод: Дублированный (Лицензия )
    Субтитры: Русские (forced, full), английские (forced, full, SDH)
    Видео: HEVC/H.265, 3840x2160, ~42, 5 Mbps
    Аудио #1: DTS, 6 ch, 768 Kbps | Русский (DUB)
    Аудио #2: AC3, 6 ch, 448 Kbps | Русский (DUB)
    Аудио #3: DTS-HD MA, 8 ch, 4744 Kbps | Английский
    General
    Unique ID : 98934294521160277535719279304438211922 (0x4A6E0D52224302187D15935E68706552)
    Complete name : D: Video111Spectre.2015.BDREMUX.2160p.HDR.seleZen.mkv
    Format : Matroska
    Format version : Version 4
    File size : 50.1 GiB
    Duration : 2 h 28 min
    Overall bit rate mode : Variable
    Overall bit rate : 48.4 Mb/s
    Movie name : Spectre 2015 4K from селезень
    Encoded date : UTC 2019-10-21 10: 21: 51
    Writing application : mkvmerge v22.0.0 (\'At The End Of The World\') 64-bit
    Writing library : libebml v1.3.5 + libmatroska v1.4.8
    Video
    ID : 1
    Format : HEVC
    Format/Info : High Efficiency Video Coding
    Format profile : Main10@L5.1@High
    HDR format : SMPTE ST 2086, HDR10 compatible
    Codec ID : V_MPEGH/ISO/HEVC
    Duration : 2 h 28 min
    Bit rate : 42.5 Mb/s
    Width : 3 840 pixels
    Height : 2 160 pixels
    Display aspect ratio : 16: 9
    Frame rate mode : Constant
    Frame rate : 23.976 (24000/1001) FPS
    Color space : YUV
    Chroma subsampling : 4: 2: 0 (Type 2)
    Bit depth : 10 bits
    Bits/(Pixel*Frame) : 0.214
    Stream size : 43.9 GiB (88%)
    Language : English
    Default : Yes
    Forced : No
    Color range : Limited
    Color primaries : BT.2020
    Transfer characteristics : PQ
    Matrix coefficients : BT.2020 non-constant
    Mastering display color pri : Display P3
    Mastering display luminance : min: 0.0001 cd/m2, max: 1000 cd/m2
    Audio #1
    ID : 2
    Format : DTS
    Format/Info : Digital Theater Systems
    Codec ID : A_DTS
    Duration : 2 h 28 min
    Bit rate mode : Constant
    Bit rate : 768 kb/s
    Channel(s) : 6 channels
    Channel layout : C L R Ls Rs LFE
    Sampling rate : 48.0 kHz
    Frame rate : 93.750 FPS (512 SPF)
    Bit depth : 24 bits
    Compression mode : Lossy
    Stream size : 814 MiB (2%)
    Title : Dub License
    Language : Russian
    Default : Yes
    Forced : Yes
    Audio #2
    ID : 3
    Format : AC-3
    Format/Info : Audio Coding 3
    Commercial name : Dolby Digital
    Codec ID : A_AC3
    Duration : 2 h 28 min
    Bit rate mode : Constant
    Bit rate : 448 kb/s
    Channel(s) : 6 channels
    Channel layout : L R C LFE Ls Rs
    Sampling rate : 48.0 kHz
    Frame rate : 31.250 FPS (1536 SPF)
    Bit depth : 16 bits
    Compression mode : Lossy
    Stream size : 475 MiB (1%)
    Title : Dub License
    Language : Russian
    Service kind : Complete Main
    Default : No
    Forced : No
    Audio #3
    ID : 4
    Format : DTS XLL
    Format/Info : Digital Theater Systems
    Commercial name : DTS-HD Master Audio
    Codec ID : A_DTS
    Duration : 2 h 28 min
    Bit rate mode : Variable
    Bit rate : 4 744 kb/s
    Channel(s) : 8 channels
    Channel layout : C L R LFE Lb Rb Lss Rss
    Sampling rate : 48.0 kHz
    Frame rate : 93.750 FPS (512 SPF)
    Bit depth : 24 bits
    Compression mode : Lossless
    Stream size : 4.91 GiB (10%)
    Title : Original
    Language : English
    Default : No
    Forced : No
    Text #1
    ID : 5
    Format : UTF-8
    Codec ID : S_TEXT/UTF8
    Codec ID/Info : UTF-8 Plain Text
    Duration : 2 h 27 min
    Bit rate : 3 b/s
    Count of elements : 84
    Stream size : 3.24 KiB (0%)
    Title : Forced
    Language : Russian
    Default : Yes
    Forced : Yes
    Text #2
    ID : 6
    Format : UTF-8
    Codec ID : S_TEXT/UTF8
    Codec ID/Info : UTF-8 Plain Text
    Duration : 2 h 27 min
    Bit rate : 41 b/s
    Count of elements : 1320
    Stream size : 44.7 KiB (0%)
    Title : Full
    Language : Russian
    Default : No
    Forced : No
    Text #3
    ID : 7
    Format : UTF-8
    Codec ID : S_TEXT/UTF8
    Codec ID/Info : UTF-8 Plain Text
    Duration : 1 h 16 min
    Bit rate : 1 b/s
    Count of elements : 39
    Stream size : 1.01 KiB (0%)
    Title : Forced
    Language : English
    Default : No
    Forced : No
    Text #4
    ID : 8
    Format : UTF-8
    Codec ID : S_TEXT/UTF8
    Codec ID/Info : UTF-8 Plain Text
    Duration : 2 h 16 min
    Bit rate : 35 b/s
    Count of elements : 1203
    Stream size : 35.6 KiB (0%)
    Title : Full
    Language : English
    Default : No
    Forced : No
    Text #5
    ID : 9
    Format : UTF-8
    Codec ID : S_TEXT/UTF8
    Codec ID/Info : UTF-8 Plain Text
    Duration : 2 h 19 min
    Bit rate : 37 b/s
    Count of elements : 1362
    Stream size : 38.6 KiB (0%)
    Title : SDH
    Language : English
    Default : No
    Forced : No
    Menu
    00: 00: 00.000 : en: 00: 00: 00.000
    00: 06: 09.744 : en: 00: 06: 09.744
    00: 13: 05.410 : en: 00: 13: 05.410
    00: 18: 59.096 : en: 00: 18: 59.096
    00: 24: 47.403 : en: 00: 24: 47.403
    00: 28: 04.683 : en: 00: 28: 04.683
    00: 32: 16.184 : en: 00: 32: 16.184
    00: 36: 59.217 : en: 00: 36: 59.217
    00: 41: 57.265 : en: 00: 41: 57.265
    00: 46: 13.771 : en: 00: 46: 13.771
    00: 50: 52.549 : en: 00: 50: 52.549
    00: 53: 43.846 : en: 00: 53: 43.846
    01: 00: 21.993 : en: 01: 00: 21.993
    01: 06: 48.838 : en: 01: 06: 48.838
    01: 10: 59.589 : en: 01: 10: 59.589
    01: 15: 14.719 : en: 01: 15: 14.719
    01: 18: 56.273 : en: 01: 18: 56.273
    01: 26: 11.666 : en: 01: 26: 11.666
    01: 29: 40.625 : en: 01: 29: 40.625
    01: 36: 44.173 : en: 01: 36: 44.173
    01: 41: 45.016 : en: 01: 41: 45.016
    01: 49: 07.040 : en: 01: 49: 07.040
    01: 55: 53.446 : en: 01: 55: 53.446
    01: 59: 39.839 : en: 01: 59: 39.839
    02: 04: 20.370 : en: 02: 04: 20.370
    02: 09: 29.136 : en: 02: 09: 29.136
    02: 14: 06.288 : en: 02: 14: 06.288
    02: 19: 43.000 : en: 02: 19: 43.000

    Скриншоты для ознакомления



    Все одноименные релизы в Клубе
    Время раздачи: 24/7 (до появления первых 3-5 скачавших)

    Онлайн видео 007: СПЕКТР



    007: СПЕКТР/Spectre (2015) UHD BDRemux [H.265/2160p] [4K, HDR, 10-bit]
    Рейтинг →
     (голосов: 1, оценка 3/5, голосовать можно 1 раз )

    Другие торренты по теме:

  • 007: СПЕКТР / Spectre (2015) WEBRip [1080p] [Трейлер] скачать через торрент бесплатно
  • 007: СПЕКТР / Spectre (2015) DCPRip [2К] [Hi10P, Hi444PP] [Трейлер А] скачать через торрент бесплатно
  • 007: СПЕКТР / Spectre (2015) WEBRip [H.264 / 1080p] [IMAX] [Трейлер] скачать через торрент бесплатно
  • 007: СПЕКТР / Spectre (2015) CamRip скачать через торрент бесплатно
  • 007: СПЕКТР / Spectre (2015) CamRip скачать через торрент бесплатно
  • 007: СПЕКТР / Spectre (2015) CamRip [Proper] скачать через торрент бесплатно
  • 007: СПЕКТР / Spectre (2015) TS скачать через торрент бесплатно
  • 007: СПЕКТР / Spectre (2015) DVDScr [звук с TS] скачать через торрент бесплатно


    • Комментарии (0):

      Информация

      Информация

        Посетители, находящиеся в группе Гости, не могут оставлять комментарии в данной новости.

        ↓ Меню




        ↓ Опрос

        Вы добавили сайт в закладки?
        Да
        Нет


        Популярное