.
Авторизация | Регистрация

bitok.xyz

» » Я, снова я и Ирэн / Me, Myself & Irene (2000) BDRip [H.264 / 720p] торрент скачать бесплатно

    Я, снова я и Ирэн / Me, Myself & Irene (2000) BDRip [H.264 / 720p] торрент скачать бесплатно

    Дата: 30-10-2019, 05:00 | .torrent скачали: 0

    Я, снова я и Ирэн / Me, Myself & Irene (2000) BDRip [H.264 / 720p]Производство: США/20th Century Fox Film Corporation, Conundrum Entertainment
    Жанр: Комедия, приключения
    Режиссер: Бобби Фаррелли, Питер Фаррелли

    Актеры
    Джим Керри, Рене Зеллвегер, Энтони Андерсон, Соо Браунли, Джерод Миксон, Крис Купер, Майкл Боуман, Ричард Дженкинс, Роберт Форстер, Майк Черроне

    Описание

    Чарли - добрый и отзывчивый патрульный полицейский. Но вот беда - он страдает раздвоением личности. Когда кто-то пытается надавить на него, появляется Хэнк - второе Я Чарли. Это грубый, жестокий, агрессивный и невоспитанный тип, любитель выпивки и сквернословия.
    Жизнь Чарли превращается в сущий кошмар, ибо Хэнк всегда появляется не вовремя, и постоянно портит ему жизнь. Только в одном их мнения совпадают, - они оба влюбляются в Ирен, но кого из них выберет капризная красавица?

    Возраст: 16+ (зрителям, достигшим 16 лет)
    Рейтинг MPAA: R (лицам до 17 лет обязательно присутствие взрослого)
    Релиз от: k.e.n MegaPeer
    Продолжительность: 01: 56: 34
    Качество видео: BDRip 720p
    Перевод: Дублированный, авторский
    Субтитры: русские, английские
    Видео: AVC, 1280x692 (1.85: 1), 23.976 fps, 7 033 kbps (0.331 bit/pixel)
    Аудио #1: AC3, 48 kHz, 6 ch, 384 kbps - Русский, DUB
    Аудио #2: AC3, 48 kHz, 6 ch, 448 kbps - Русский, AVO В.Котов
    Аудио #3: AC3, 48 kHz, 6 ch, 448 kbps - Русский, AVO С.Визгунов
    Аудио #4: AC3, 48 kHz, 6 ch, 448 kbps - Русский, AVO А.Гаврилов
    Аудио #5: AC3, 48 kHz, 2 ch, 192 kbps - Русский, AVO Ю.Живов
    Аудио #6: AC3, 48 kHz, 2 ch, 192 kbps - Русский, AVO А.Дольский
    Аудио #7: AC3, 48 kHz, 6 ch, 384 kbps - Английский, Original
    Complete name : D: ФИЛЬМЫЯ, снова я и Ирэн.2000 (Д.Керри, Р.Зеллвегер).k.e.n MegaPeer.mkv
    Format : Matroska
    Format version : Version 2
    File size : 7.76 GiB
    Duration : 1 h 56 min
    Overall bit rate : 9 525 kb/s
    Encoded date : UTC 2019-10-28 12: 07: 37
    Writing application : mkvmerge v5.3.0 (\'I could have danced\') built on Feb 9 2012 10: 38: 07
    Writing library : libebml v1.2.3 + libmatroska v1.3.0
    Attachments : poster 1.png
    Video
    ID : 1
    Format : AVC
    Format/Info : Advanced Video Codec
    Format profile : High@L4.1
    Format settings : CABAC/9 Ref Frames
    Format settings, CABAC : Yes
    Format settings, ReFrames : 9 frames
    Codec ID : V_MPEG4/ISO/AVC
    Duration : 1 h 56 min
    Bit rate : 7 033 kb/s
    Width : 1 280 pixels
    Height : 692 pixels
    Display aspect ratio : 1.85: 1
    Frame rate mode : Constant
    Frame rate : 23.976 (24000/1001) FPS
    Color space : YUV
    Chroma subsampling : 4: 2: 0
    Bit depth : 8 bits
    Scan type : Progressive
    Bits/(Pixel*Frame) : 0.331
    Stream size : 5.57 GiB (72%)
    Writing library : x264 core 157 r2945 72db437
    Encoding settings : cabac=1/ref=9/deblock=1: -3: -3/analyse=0x3: 0x133/me=umh/subme=11/psy=1/psy_rd=1.00: 0.00/mixed_ref=1/me_range=32/chroma_me=1/trellis=2/8x8dct=1/cqm=0/deadzone=21, 11/fast_pskip=0/chroma_qp_offset=-2/threads=12/lookahead_threads=3/sliced_threads=0/nr=0/decimate=0/interlaced=0/bluray_compat=0/constrained_intra=0/bframes=11/b_pyramid=2/b_adapt=2/b_bias=0/direct=3/weightb=1/open_gop=0/weightp=2/keyint=240/keyint_min=23/scenecut=40/intra_refresh=0/rc_lookahead=60/rc=2pass/mbtree=0/bitrate=7033/ratetol=1.0/qcomp=0.65/qpmin=0/qpmax=69/qpstep=4/cplxblur=20.0/qblur=0.5/vbv_maxrate=50000/vbv_bufsize=62500/nal_hrd=none/filler=0/ip_ratio=1.20/pb_ratio=1.10/aq=3: 0.80
    Language : English
    Default : Yes
    Forced : No
    Color range : Limited
    Color primaries : BT.709
    Transfer characteristics : BT.709
    Matrix coefficients : BT.709
    Audio #1
    ID : 2
    Format : AC-3
    Format/Info : Audio Coding 3
    Commercial name : Dolby Digital
    Codec ID : A_AC3
    Duration : 1 h 56 min
    Bit rate mode : Constant
    Bit rate : 384 kb/s
    Channel(s) : 6 channels
    Channel layout : L R C LFE Ls Rs
    Sampling rate : 48.0 kHz
    Frame rate : 31.250 FPS (1536 SPF)
    Bit depth : 16 bits
    Compression mode : Lossy
    Stream size : 320 MiB (4%)
    Title : Dub (R5)
    Language : Russian
    Service kind : Complete Main
    Default : No
    Forced : No
    Audio #2
    ID : 3
    Format : AC-3
    Format/Info : Audio Coding 3
    Commercial name : Dolby Digital
    Codec ID : A_AC3
    Duration : 1 h 56 min
    Bit rate mode : Constant
    Bit rate : 448 kb/s
    Channel(s) : 6 channels
    Channel layout : L R C LFE Ls Rs
    Sampling rate : 48.0 kHz
    Frame rate : 31.250 FPS (1536 SPF)
    Bit depth : 16 bits
    Compression mode : Lossy
    Stream size : 374 MiB (5%)
    Title : AVO (В. Котов)
    Language : Russian
    Service kind : Complete Main
    Default : No
    Forced : No
    Audio #3
    ID : 4
    Format : AC-3
    Format/Info : Audio Coding 3
    Commercial name : Dolby Digital
    Codec ID : A_AC3
    Duration : 1 h 56 min
    Bit rate mode : Constant
    Bit rate : 448 kb/s
    Channel(s) : 6 channels
    Channel layout : L R C LFE Ls Rs
    Sampling rate : 48.0 kHz
    Frame rate : 31.250 FPS (1536 SPF)
    Bit depth : 16 bits
    Compression mode : Lossy
    Stream size : 374 MiB (5%)
    Title : AVO (С. Визгунов)
    Language : Russian
    Service kind : Complete Main
    Default : No
    Forced : No
    Audio #4
    ID : 5
    Format : AC-3
    Format/Info : Audio Coding 3
    Commercial name : Dolby Digital
    Codec ID : A_AC3
    Duration : 1 h 56 min
    Bit rate mode : Constant
    Bit rate : 448 kb/s
    Channel(s) : 6 channels
    Channel layout : L R C LFE Ls Rs
    Sampling rate : 48.0 kHz
    Frame rate : 31.250 FPS (1536 SPF)
    Bit depth : 16 bits
    Compression mode : Lossy
    Stream size : 374 MiB (5%)
    Title : AVO (А. Гаврилов)
    Language : Russian
    Service kind : Complete Main
    Default : No
    Forced : No
    Audio #5
    ID : 6
    Format : AC-3
    Format/Info : Audio Coding 3
    Commercial name : Dolby Digital
    Codec ID : A_AC3
    Duration : 1 h 56 min
    Bit rate mode : Constant
    Bit rate : 192 kb/s
    Channel(s) : 2 channels
    Channel layout : L R
    Sampling rate : 48.0 kHz
    Frame rate : 31.250 FPS (1536 SPF)
    Bit depth : 16 bits
    Compression mode : Lossy
    Stream size : 160 MiB (2%)
    Title : AVO (Ю. Живов)
    Language : Russian
    Service kind : Complete Main
    Default : No
    Forced : No
    Audio #6
    ID : 7
    Format : AC-3
    Format/Info : Audio Coding 3
    Commercial name : Dolby Digital
    Codec ID : A_AC3
    Duration : 1 h 56 min
    Bit rate mode : Constant
    Bit rate : 192 kb/s
    Channel(s) : 2 channels
    Channel layout : L R
    Sampling rate : 48.0 kHz
    Frame rate : 31.250 FPS (1536 SPF)
    Bit depth : 16 bits
    Compression mode : Lossy
    Stream size : 160 MiB (2%)
    Title : AVO (А. Дольский)
    Language : Russian
    Service kind : Complete Main
    Default : No
    Forced : No
    Audio #7
    ID : 8
    Format : AC-3
    Format/Info : Audio Coding 3
    Commercial name : Dolby Digital
    Codec ID : A_AC3
    Duration : 1 h 56 min
    Bit rate mode : Constant
    Bit rate : 384 kb/s
    Channel(s) : 6 channels
    Channel layout : L R C LFE Ls Rs
    Sampling rate : 48.0 kHz
    Frame rate : 31.250 FPS (1536 SPF)
    Bit depth : 16 bits
    Compression mode : Lossy
    Stream size : 320 MiB (4%)
    Title : Original
    Language : English
    Service kind : Complete Main
    Default : No
    Forced : No
    Text #1
    ID : 9
    Format : UTF-8
    Codec ID : S_TEXT/UTF8
    Codec ID/Info : UTF-8 Plain Text
    Title : forced (Perevodman)
    Language : Russian
    Default : Yes
    Forced : Yes
    Text #2
    ID : 10
    Format : UTF-8
    Codec ID : S_TEXT/UTF8
    Codec ID/Info : UTF-8 Plain Text
    Title : full
    Language : Russian
    Default : No
    Forced : No
    Text #3
    ID : 11
    Format : UTF-8
    Codec ID : S_TEXT/UTF8
    Codec ID/Info : UTF-8 Plain Text
    Title : full
    Language : English
    Default : No
    Forced : No
    Menu
    00: 00: 00.000 : en: Chapter 01
    00: 01: 58.285 : en: Chapter 02
    00: 09: 50.089 : en: Chapter 03
    00: 13: 13.209 : en: Chapter 04
    00: 17: 45.147 : en: Chapter 05
    00: 24: 56.954 : en: Chapter 06
    00: 34: 29.943 : en: Chapter 07
    00: 36: 57.215 : en: Chapter 08
    00: 41: 04.545 : en: Chapter 09
    00: 49: 30.092 : en: Chapter 10
    00: 54: 41.570 : en: Chapter 11
    00: 59: 14.259 : en: Chapter 12
    01: 05: 25.421 : en: Chapter 13
    01: 14: 40.017 : en: Chapter 14
    01: 19: 34.311 : en: Chapter 15
    01: 25: 06.893 : en: Chapter 16
    01: 30: 55.700 : en: Chapter 17
    01: 40: 29.941 : en: Chapter 18
    01: 48: 53.902 : en: Chapter 19
    01: 55: 52.863 : en: Chapter 20

    Скриншоты для ознакомления



    Все одноименные релизы в Клубе
    Время раздачи: с 23: 00 до 8: 30 (до появления первых 3-5 скачавших)

    Онлайн видео Я, снова я и Ирэн


    Прямая ссылка скачивания через uTorrent


    Я, снова я и Ирэн/Me, Myself & Irene (2000) BDRip [H.264/720p]
    Рейтинг →
     (голосов: 1, оценка 4/5, голосовать можно 1 раз )

    Другие торренты по теме:

  • Я, снова я и Ирэн / Me, Myself & Irene (2000) BDRip
  • Я, снова я и Ирэн / Me, Myself & Irene (2000) BDRip [H.264 / 1080p-LQ]


    • Комментарии (0):

      Информация

      Информация

        Посетители, находящиеся в группе Гости, не могут оставлять комментарии в данной новости.

        ↓ Меню




        ↓ Опрос

        Вы добавили сайт в закладки?
        Да
        Нет


        Популярное