.
Авторизация | Регистрация

bitok.xyz

» » Бруклинская рокировка / Queens Logic (1990) DVDRip торрент скачать бесплатно


    Бруклинская рокировка / Queens Logic (1990) DVDRip торрент скачать бесплатно

    Дата: 30-10-2019, 05:00 | .torrent скачали: 0

    Бруклинская рокировка / Queens Logic (1990) DVDRipПроизводство: Carolco Pictures Inc., New Line Cinema, New Visions Pictures
    Жанр: Мелодрама, комедия
    Режиссер: Стив Рэш/Steve Rash

    Актеры
    Кевин Бейкон, Линда Фиорентино, Джон Малкович, Джо Мантенья, Кен Олин, Тони Спиридакис, Том Уэйтс, Хлоя Уэбб, Джейми Ли Кёртис, Майкл Зелникер

    Описание

    Старые друзья детства вновь собираются вместе в родном нью-йоркском районе Квинс, над которым нависает мост Адские ворота, чтобы отпраздновать свадьбу Рэя и Патрисии. Хотя еще не факт, что свадьба состоится. Художник Рэй мечтает рисовать фрески в Италии, а парикмахерша Патрисия и не помышляет уезжать из родного квартала. А тут еще Карла собирается подать на развод с Элом, всегдашним заводилой их компании — слишком сильно он увлекается молоденькими девушками.

    Возраст: 16+ (зрителям, достигшим 16 лет)
    Рейтинг MPAA: R (лицам до 17 лет обязательно присутствие взрослого)
    Продолжительность: 01: 53: 20
    Качество видео: DVDRip
    Перевод: Авторский одноголосый (А.Михалев), одноголосый (не опознан), двуголосый профессиональный
    Субтитры: отсутствуют
    Видео: Xvid, 640x480, ~2184 kbps
    Аудио: AC3, 2 ch, 192 kbps (Алексей Михалев)
    Аудио: AC3, 2 ch, 192 kbps Одноголосый закадровый (не опознан)
    Аудио: AC3, 2 ch, 192 kbps Профессиональный (двухголосый закадровый)
    Queens.Logic_1991.DVDRip.avi
    Format : AVI
    Format/Info : Audio Video Interleave
    Format profile : OpenDML
    File size : 2.19 GiB
    Duration : 1 h 53 min
    Overall bit rate : 2 767 kb/s
    Movie name : Бруклинская рокировка (Queens Logic)
    Director : DVDRip by ale_x2008
    Genre : Comedy/Romance
    Writing application : VirtualDubMod 1.5.10.3 (build 2550/release)
    Original source form/Name : Movie
    Copyright : Edich2
    Comment : .org
    Video
    ID : 0
    Format : MPEG-4 Visual
    Format profile : Advanced Simple@L5
    Format settings : BVOP1
    Format settings, BVOP : 1
    Format settings, QPel : No
    Format settings, GMC : No warppoints
    Format settings, Matrix : Default (MPEG)
    Codec ID : XVID
    Codec ID/Hint : XviD
    Duration : 1 h 53 min
    Bit rate : 2 167 kb/s
    Width : 640 pixels
    Height : 480 pixels
    Display aspect ratio : 4: 3
    Frame rate : 23.976 (24000/1001) FPS
    Color space : YUV
    Chroma subsampling : 4: 2: 0
    Bit depth : 8 bits
    Scan type : Progressive
    Compression mode : Lossy
    Bits/(Pixel*Frame) : 0.294
    Stream size : 1.72 GiB (78%)
    Writing library : XviD 73
    Audio #1
    ID : 1
    Format : AC-3
    Format/Info : Audio Coding 3
    Codec ID : 2000
    Duration : 1 h 53 min
    Bit rate mode : Constant
    Bit rate : 192 kb/s
    Channel(s) : 2 channels
    Channel positions : Front: L R
    Sampling rate : 48.0 kHz
    Frame rate : 31.250 FPS (1536 SPF)
    Bit depth : 16 bits
    Compression mode : Lossy
    Stream size : 156 MiB (7%)
    Alignment : Split accross interleaves
    Interleave, duration : 42 ms (1.00 video frame)
    Interleave, preload duratio : 500 ms
    Service kind : Complete Main
    Audio #2
    ID : 2
    Format : AC-3
    Format/Info : Audio Coding 3
    Codec ID : 2000
    Duration : 1 h 53 min
    Bit rate mode : Constant
    Bit rate : 192 kb/s
    Channel(s) : 2 channels
    Channel positions : Front: L R
    Sampling rate : 48.0 kHz
    Frame rate : 31.250 FPS (1536 SPF)
    Bit depth : 16 bits
    Compression mode : Lossy
    Stream size : 156 MiB (7%)
    Alignment : Split accross interleaves
    Interleave, duration : 42 ms (1.00 video frame)
    Interleave, preload duratio : 500 ms
    Service kind : Complete Main
    Audio #3
    ID : 3
    Format : AC-3
    Format/Info : Audio Coding 3
    Codec ID : 2000
    Duration : 1 h 53 min
    Bit rate mode : Constant
    Bit rate : 192 kb/s
    Channel(s) : 2 channels
    Channel positions : Front: L R
    Sampling rate : 48.0 kHz
    Frame rate : 31.250 FPS (1536 SPF)
    Bit depth : 16 bits
    Compression mode : Lossy
    Stream size : 156 MiB (7%)
    Alignment : Split accross interleaves
    Interleave, duration : 42 ms (1.00 video frame)
    Interleave, preload duratio : 500 ms
    Service kind : Complete Main

    Скриншоты для ознакомления



    Все одноименные релизы в Клубе
    Время раздачи: 24/7 (круглосуточно) (до появления первых 3-5 скачавших)

    Онлайн видео Бруклинская рокировка



    Бруклинская рокировка/Queens Logic (1990) DVDRip
    Рейтинг →
     (голосов: 1, оценка 4/5, голосовать можно 1 раз )

    Другие торренты по теме:



      Комментарии (0):

      Информация

      Информация

        Посетители, находящиеся в группе Гости, не могут оставлять комментарии в данной новости.

        ↓ Меню




        ↓ Опрос

        Вы добавили сайт в закладки?
        Да
        Нет


        Популярное