.
Авторизация | Регистрация

bitok.xyz

» » Секретные материалы: Взгляд изнутри / Inside the X Files (1998) DVDRip торрент скачать бесплатно


    Секретные материалы: Взгляд изнутри / Inside the X Files (1998) DVDRip торрент скачать бесплатно

    Дата: 30-10-2019, 05:00 | .torrent скачали: 0

    Секретные материалы: Взгляд изнутри / Inside the X Files (1998) DVDRipПроизводство: США, Канада
    Жанр: Документальный, фильм о фильме
    Режиссер: Крис Картер

    Актеры
    Джиллиан Андерсон, Крис Картер, Дэвид Духовны, Митч Пиледжи, Уильям Б. Дэвис

    Описание

    Документальный фильм о съемочном процессе сериала Секретные материалы. Содержащий интервью с создателями и исполнителями главных ролей.

    Релиз от: lexx256 ®
    Продолжительность: 00: 35: 42
    Качество видео: DVDRip
    Перевод: Многоголосый профессиональный
    Субтитры: отсутствуют
    Видео: Xvid, 720x540, 2700 Kbps
    Аудио: AC3, 2 ch, 192 Kbps | Русский Многоголосый, Закадровый - RenTV
    General
    Complete name : Секретные материалы Взгляд изнутри-1998 (DVDRip By lexx256).avi
    Format : AVI
    Format/Info : Audio Video Interleave
    File size : 945 MiB
    Duration : 45 min 32 s
    Overall bit rate : 2 902 kb/s
    Writing application : Lavf58.20.100
    Video
    ID : 0
    Format : MPEG-4 Visual
    Format profile : Advanced Simple@L5
    Format settings : BVOP1
    Format settings, BVOP : 1
    Format settings, QPel : No
    Format settings, GMC : No warppoints
    Format settings, Matrix : Default (MPEG)
    Codec ID : XVID
    Codec ID/Hint : XviD
    Duration : 45 min 32 s
    Bit rate : 2 700 kb/s
    Width : 720 pixels
    Height : 540 pixels
    Display aspect ratio : 4: 3
    Frame rate : 25.000 FPS
    Color space : YUV
    Chroma subsampling : 4: 2: 0
    Bit depth : 8 bits
    Scan type : Progressive
    Original scan type : Interlaced
    Original scan order : Top Field First
    Compression mode : Lossy
    Bits/(Pixel*Frame) : 0.278
    Stream size : 879 MiB (93%)
    Writing library : XviD 67
    Audio
    ID : 1
    Format : AC-3
    Format/Info : Audio Coding 3
    Commercial name : Dolby Digital
    Codec ID : 2000
    Duration : 45 min 32 s
    Bit rate mode : Constant
    Bit rate : 192 kb/s
    Channel(s) : 2 channels
    Channel layout : L R
    Sampling rate : 48.0 kHz
    Frame rate : 31.250 FPS (1536 SPF)
    Bit depth : 16 bits
    Compression mode : Lossy
    Stream size : 62.5 MiB (7%)
    Alignment : Aligned on interleaves
    Interleave, duration : 32 ms (0.80 video frame)
    Service kind : Complete Main

    Скриншоты для ознакомления



    Все одноименные релизы в Клубе
    Время раздачи: До первых скачавших (до появления первых 3-5 скачавших)

    Онлайн видео Секретные материалы: Взгляд изнутри



    Секретные материалы: Взгляд изнутри/Inside the X Files (1998) DVDRip
    Рейтинг →
     (голосов: 1, оценка 4/5, голосовать можно 1 раз )

    Другие торренты по теме:

  • Секретные материалы. Выпуск №60 (2014.09.) SATRip [RUS / UKR]
  • Секретные материалы: ключи от долголетия (2014) HDTVRip
  • Секретные материалы. Выпуск №59 (2014.09.23) SATRip [RUS / UKR]
  • Секретные материалы. Выпуск №58 (2014.09.22) SATRip [RUS / UKR]
  • Секретные материалы: ключи от долголетия (2014) HDTV [H.264 / 1080i]
  • Секретные материалы. Выпуск №57 (2014.09.18) SATRip [RUS / UKR]
  • Секретные материалы. Выпуск №56 (2014.09.17) SATRip [RUS / UKR]
  • Секретные материалы. Выпуск №55 (2014.09.16) SATRip [RUS / UKR]


    • Комментарии (0):

      Информация

      Информация

        Посетители, находящиеся в группе Гости, не могут оставлять комментарии в данной новости.

        ↓ Меню




        ↓ Опрос

        Вы добавили сайт в закладки?
        Да
        Нет


        Популярное