.
Авторизация | Регистрация

bitok.xyz

» » Назад в будущее 2 / Back to the Future Part II (1989) BDRip [H.264 / 1080p-LQ] торрент скачать бесплатно


    Назад в будущее 2 / Back to the Future Part II (1989) BDRip [H.264 / 1080p-LQ] торрент скачать бесплатно

    Дата: 30-10-2019, 05:00 | .torrent скачали: 0

    Назад в будущее 2 / Back to the Future Part II (1989) BDRip [H.264 / 1080p-LQ]Производство: США/Amblin Entertainment, U-Drive Productions, Universal Pictures
    Жанр: Комедия, Приключения, Фантастика
    Режиссер: Роберт Земекис

    Актеры
    Майкл Дж. Фокс, Кристофер Ллойд, Лиа Томпсон, Томас Ф. Уилсон, Элизабет Шу, Джеймс Толкан, Джеффри Вайсман, Кейси Семашко, Билли Зейн, Дж.Дж. Коэн

    Описание

    Продолжение фантастической истории о приключениях американского подростка во времени. На этот раз с помощью модернизированной Доком машины времени Марти из 80-х попадает в будущее.
    Дети Марти в беде, и их надо выручать. Приходится повозиться со злодеем…

    Возраст: 6+ (зрителям, достигшим 6 лет)
    Рейтинг MPAA: PG (рекомендуется присутствие родителей)
    Релиз от: SergeyAms
    Продолжительность: 01: 47: 59
    Качество видео: BDRip
    Перевод: Дублированный
    Субтитры: английские (полные)
    Видео: AVC/H.264, 1920х1040, ~5 Mbps
    Аудио #1: AC3, 6 ch, 640 kbps - русский
    Аудио #2: AC3, 6 ch, 640 kbps - английский
    Unique ID : 234124662861942010298197901540137010108 (0xB022C517AD684811AA90A5BABB0683BC)
    Complete name : D: TempNNMBackToTheFuture 2.1080p.mkv
    Format : Matroska
    Format version : Version 4/Version 2
    File size : 4.74 GiB
    Duration : 1h 47mn
    Overall bit rate : 6 280 Kbps
    Movie name : BACK_TO_THE_FUTURE_PART_II.Title800
    Encoded date : UTC 2019-10-28 08: 38: 59
    Writing application : mkvmerge v9.8.0 (\'Kuglblids\') 64bit
    Writing library : libebml v1.3.4 + libmatroska v1.4.5
    Video
    ID : 1
    Format : AVC
    Format/Info : Advanced Video Codec
    Format profile : High@L4.1
    Format settings, CABAC : Yes
    Format settings, ReFrames : 4 frames
    Codec ID : V_MPEG4/ISO/AVC
    Duration : 1h 47mn
    Bit rate : 5 000 Kbps
    Width : 1 920 pixels
    Height : 1 040 pixels
    Display aspect ratio : 1.85: 1
    Frame rate mode : Constant
    Frame rate : 23.976 fps
    Color space : YUV
    Chroma subsampling : 4: 2: 0
    Bit depth : 8 bits
    Scan type : Progressive
    Bits/(Pixel*Frame) : 0.104
    Stream size : 3.68 GiB (78%)
    Writing library : x264 core 157 r2935 545de2f
    Encoding settings : cabac=1/ref=4/deblock=1: -2: -2/analyse=0x3: 0x113/me=umh/subme=10/psy=1/psy_rd=1.05: 0.10/mixed_ref=1/me_range=24/chroma_me=1/trellis=2/8x8dct=1/cqm=0/deadzone=21, 11/fast_pskip=0/chroma_qp_offset=-3/threads=5/lookahead_threads=1/sliced_threads=0/nr=0/decimate=0/interlaced=0/bluray_compat=0/constrained_intra=0/bframes=7/b_pyramid=2/b_adapt=2/b_bias=0/direct=1/weightb=1/open_gop=0/weightp=2/keyint=240/keyint_min=24/scenecut=40/intra_refresh=0/rc=2pass/mbtree=0/bitrate=5000/ratetol=1.0/qcomp=0.70/qpmin=3/qpmax=69/qpstep=4/cplxblur=20.0/qblur=0.5/ip_ratio=1.40/pb_ratio=1.30/aq=2: 1.00
    Default : Yes
    Forced : No
    Audio #1
    ID : 2
    Format : AC-3
    Format/Info : Audio Coding 3
    Mode extension : CM (complete main)
    Format settings, Endianness : Big
    Codec ID : A_AC3
    Duration : 1h 47mn
    Bit rate mode : Constant
    Bit rate : 640 Kbps
    Channel(s) : 6 channels
    Channel positions : Front: L C R, Side: L R, LFE
    Sampling rate : 48.0 KHz
    Bit depth : 16 bits
    Compression mode : Lossy
    Stream size : 494 MiB (10%)
    Language : Russian
    Default : Yes
    Forced : No
    Audio #2
    ID : 3
    Format : AC-3
    Format/Info : Audio Coding 3
    Mode extension : CM (complete main)
    Format settings, Endianness : Big
    Codec ID : A_AC3
    Duration : 1h 47mn
    Bit rate mode : Constant
    Bit rate : 640 Kbps
    Channel(s) : 6 channels
    Channel positions : Front: L C R, Side: L R, LFE
    Sampling rate : 48.0 KHz
    Bit depth : 16 bits
    Compression mode : Lossy
    Stream size : 494 MiB (10%)
    Language : English
    Default : No
    Forced : No
    Text
    ID : 4
    Format : UTF-8
    Codec ID : S_TEXT/UTF8
    Codec ID/Info : UTF-8 Plain Text
    Title : Английские
    Language : English
    Default : No
    Forced : No
    Menu
    00: 00: 00.000 : : (01)00: 00: 00: 000
    00: 02: 57.510 : : (02)00: 02: 57: 510
    00: 04: 17.632 : : (03)00: 04: 17: 632
    00: 12: 44.388 : : (04)00: 12: 44: 388
    00: 17: 09.111 : : (05)00: 17: 09: 111
    00: 21: 16.525 : : (06)00: 21: 16: 525
    00: 26: 59.659 : : (07)00: 26: 59: 659
    00: 34: 15.428 : : (08)00: 34: 15: 428
    00: 38: 32.476 : : (09)00: 38: 32: 476
    00: 46: 13.061 : : (10)00: 46: 13: 061
    00: 50: 35.449 : : (11)00: 50: 35: 449
    00: 55: 32.620 : : (12)00: 55: 32: 620
    01: 01: 30.144 : : (13)01: 01: 30: 144
    01: 07: 14.196 : : (14)01: 07: 14: 196


    Онлайн видео Назад в будущее 2



    Назад в будущее 2/Back to the Future Part II (1989) BDRip [H.264/1080p-LQ]
    Рейтинг →
     (голосов: 1, оценка 4/5, голосовать можно 1 раз )

    Другие торренты по теме:

  • Назад в будущее: Трилогия / Back to the Future: Trilogy (1985,1989,1990) BDRip [720p]
  • Назад в будущее: Трилогия / Back to the Future: Trilogy (1985,1989,1990) HDRip [H.264] [MP4|960х528] скачать через торрент бесплатно
  • Михаил Задорнов. Неформат 77. Рейтинг Путина, Валдайский клуб, назад в будущее (2015.10.23) WEB-DLRip [H.264 / 720p-LQ] скачать через торрент бесплатно
  • Михаил Задорнов. Неформат 77. Рейтинг Путина, Валдайский клуб, назад в будущее (2015.10.23) WEBRip скачать через торрент бесплатно
  • Назад в будущее: Трилогия / Back to the Future: Trilogy (1985, 1989, 1990) BDRip [H.264 / 720p-LQ] скачать через торрент бесплатно
  • Назад в будущее / Back to the Future: The Animated Series (1991-1993) DVBRip, SATRip (Сезон 1-2 серии 1-26 из 26)
  • Место встречи. Космос- назад в будущее (12.04.2016) SATRip
  • Назад в будущее 3 / Back to the Future Part III (1990) BDRip [H.265 / 1080p]


    • Комментарии (0):

      Информация

      Информация

        Посетители, находящиеся в группе Гости, не могут оставлять комментарии в данной новости.

        ↓ Меню




        ↓ Опрос

        Вы добавили сайт в закладки?
        Да
        Нет


        Популярное