.
Авторизация | Регистрация

bitok.xyz

» » Полярный (2019) WEB-DL [H.264 / 720p-LQ] (сезон 1, серии 1-2 из 16) (обновляемая) торрент скачать бесплатно


    Полярный (2019) WEB-DL [H.264 / 720p-LQ] (сезон 1, серии 1-2 из 16) (обновляемая) торрент скачать бесплатно

    Дата: 30-10-2019, 05:00 | .torrent скачали: 5

    Полярный (2019) WEB-DL [H.264 / 720p-LQ] (сезон 1, серии 1-2 из 16) (обновляемая)Производство: Россия/ТНТ
    Жанр: комедия
    Режиссер: Михаил Старчак, Константин Статский

    Актеры
    Михаил Пореченков, Иван Охлобыстин, Катерина Шпица, Владимир Епифанцев, Александр Потапов, Игорь Жижикин, Ян Цапник, Филипп Дьячков, Светлана Листова, Карина Зверева и др.

    Описание

    Эта история о бывшем бандите по кличке Витя Мясник. В середине 90-х одно его имя заставляло московских коммерсантов хвататься за сердце, а конкурентов по опасному бизнесу — за стволы. Но со временем Витя отошел от дел и переехал за город. Идиллия нарушается неожиданным визитом бывших подельников Вити во главе с авторитетом по имени Артур. Он просит Витю передержать на его оффшорном банковском счете воровской общак. Витя кладет общак на свой банковский счет и по настойчивой просьбе Артура ставит на счет пароль, который знает только он один...

    Возраст: 16+ (зрителям, достигшим 16 лет)
    Дата российской премьеры: 28 октября 2019
    Релиз от: ExKinoRay
    Продолжительность: ~00: 25: 00 серия
    Качество видео: WEB-DL
    Видео: AVC/H.264, 1280x624, ~3424 Kbps
    Аудио: AC3, 2 ch, 192 Kbps
    Общее
    Уникальный идентификатор : 174413297036168506928739550418661368467 (0x8336C7761EDB08258D81B2D1588D6293)
    Полное имя : /Volumes/HDD/Movies/NNMC/Poliarniy.2019.WEB-DL.(720p).ExKinoRay/Poliarniy.e01.2019.WEB-DL.(720p).ExKinoRay.mkv
    Формат : Matroska
    Версия формата : Version 2
    Размер файла : 690 Мбайт
    Продолжительность : 26 м. 9 с.
    Общий поток : 3689 Кбит/сек
    Дата кодирования : UTC 2019-10-26 23: 36: 55
    Программа кодирования : mkvmerge v5.8.0 (\'No Sleep/Pillow\') built on Sep 2 2012 15: 37: 04
    Библиотека кодирования : libebml v1.2.3 + libmatroska v1.3.0
    Видео
    Идентификатор : 1
    Формат : AVC
    Формат/Информация : Advanced Video Codec
    Профиль формата : High@L4.1
    Настройки формата : CABAC/9 Ref Frames
    Параметр CABAC формата : Да
    Параметр ReFrames формата : 9 кадров
    Идентификатор кодека : V_MPEG4/ISO/AVC
    Продолжительность : 26 м. 10 с.
    Битрейт : 3424 Кбит/сек
    Ширина : 1280 пикселей
    Высота : 624 пикселя
    Соотношение сторон : 2, 051
    Режим частоты кадров : Постоянный
    Частота кадров : 25, 000 кадров/сек
    Цветовое пространство : YUV
    Субдискретизация насыщенности : 4: 2: 0
    Битовая глубина : 8 бит
    Тип развёртки : Прогрессивная
    Бит/(Пиксели*Кадры) : 0.171
    Размер потока : 641 Мбайт (93%)
    Язык : Russian
    Default : Да
    Forced : Нет
    Цветовой диапазон : Limited
    Основные цвета : BT.709
    Характеристики трансфера : BT.709
    Коэффициенты матрицы : BT.709
    Аудио
    Идентификатор : 2
    Формат : AC-3
    Формат/Информация : Audio Coding 3
    Коммерческое название : Dolby Digital
    Идентификатор кодека : A_AC3
    Продолжительность : 26 м. 9 с.
    Вид битрейта : Постоянный
    Битрейт : 192 Кбит/сек
    Каналы : 2 канала
    Channel layout : L R
    Частота : 48, 0 КГц
    Частота кадров : 31, 250 кадров/сек (1536 SPF)
    Битовая глубина : 16 бит
    Метод сжатия : С потерями
    Размер потока : 35, 9 Мбайт (5%)
    Язык : Russian
    Service kind : Complete Main
    Default : Да
    Forced : Нет

    Скриншоты для ознакомления



    Все одноименные релизы в Клубе
    Время раздачи: 24/7 (до появления первых 3-5 скачавших)

    Онлайн видео Полярный (2019) WEB-DL [H.264



    Полярный (2019) WEB-DL [H.264/720p-LQ] (сезон 1, серии 1-2 из 16) (обновляемая)
    Рейтинг →
     (голосов: 1, оценка 3/5, голосовать можно 1 раз )

    Другие торренты по теме:

  • Полярный / Polar (2019) WEB-DL [H.264 / 1080p-LQ] [EN / RU, EN, Others Sub]
  • Полярный / Polar (2019) WEB-DL [H.264 / 1080p-LQ] [VO]
  • Полярный / Polar (2019) WEB-DL [H.264 / 1080p] [MVO]
  • Полярный (2019) WEB-DL [H.264 / 1080p-LQ] (сезон 1, серии 1-2 из 16) (обновляемая)


    • Комментарии (0):

      Информация

      Информация

        Посетители, находящиеся в группе Гости, не могут оставлять комментарии в данной новости.

        ↓ Меню




        ↓ Опрос

        Вы добавили сайт в закладки?
        Да
        Нет


        Популярное