.
Авторизация | Регистрация

bitok.xyz

» » Русский дубль (2010) DVDRip (сезон 1, серии 1-16 из 16) торрент скачать бесплатно


    Русский дубль (2010) DVDRip (сезон 1, серии 1-16 из 16) торрент скачать бесплатно

    Дата: 30-10-2019, 05:00 | .torrent скачали: 0

    Русский дубль (2010) DVDRip (сезон 1, серии 1-16 из 16)Производство: Россия/Триикс Медиа
    Жанр: детектив
    Режиссер: Сергей Щербин

    Актеры
    Максим Дрозд, Алёна Шайтарова, Алексей Фокин, Сергей Горобченко, Андрей Зибров, Андрей Пынзару, Сергей Красовский, Ян Цапник, Игорь Ключников, Олег Трифонов и др.

    Описание

    Два друга детства, выросшие в одном дворе и ходившие в одну школу, взяли течение жизни в свои руки и организовали собственный бизнес - частное сыскное агентство. Андрей - в прошлом - инженер, работавший в почтовом ящике, уволенный в период начала процесса конверсии. Максим - в прошлом - оперуполномоченный, ушедший из органов из-за конфликтов с начальством - слишком уж Максим оказался неподкупным и принципиальным правдолюбом.. .

    Возраст: 16+ (зрителям, достигшим 16 лет)
    Продолжительность: ~00: 45: 00 серия
    Качество видео: DVDRip
    Видео: Xvid, 720x400 (16: 9), ~1397 kbps
    Аудио: AC3, 2 ch, 192 kbps
    General
    Complete name : F: Мои сериалыRusskij_dubl\'_S1_1-16iz16_2010_XviD_DVDRip1.Должник.avi
    Format : AVI
    Format/Info : Audio Video Interleave
    File size : 556 MiB
    Duration : 48 min 37 s
    Overall bit rate : 1 598 kb/s
    Writing application : VirtualDubMod 1.5.10.3 |www.virtualdub-fr.org|| (build 2550/release)
    Writing library : VirtualDub build 40716/release
    Video
    ID : 0
    Format : MPEG-4 Visual
    Format profile : Advanced Simple@L5
    Format settings : BVOP2
    Format settings, BVOP : 2
    Format settings, QPel : No
    Format settings, GMC : No warppoints
    Format settings, Matrix : Default (H.263)
    Codec ID : XVID
    Codec ID/Hint : XviD
    Duration : 48 min 37 s
    Bit rate : 1 397 kb/s
    Width : 720 pixels
    Height : 400 pixels
    Display aspect ratio : 16: 9
    Frame rate : 25.000 FPS
    Color space : YUV
    Chroma subsampling : 4: 2: 0
    Bit depth : 8 bits
    Scan type : Progressive
    Compression mode : Lossy
    Bits/(Pixel*Frame) : 0.194
    Stream size : 486 MiB (87%)
    Writing library : XviD 67
    Audio
    ID : 1
    Format : AC-3
    Format/Info : Audio Coding 3
    Commercial name : Dolby Digital
    Codec ID : 2000
    Duration : 48 min 37 s
    Bit rate mode : Constant
    Bit rate : 192 kb/s
    Channel(s) : 2 channels
    Channel layout : L R
    Sampling rate : 48.0 kHz
    Frame rate : 31.250 FPS (1536 SPF)
    Bit depth : 16 bits
    Compression mode : Lossy
    Stream size : 66.8 MiB (12%)
    Alignment : Aligned on interleaves
    Interleave, duration : 40 ms (1.00 video frame)
    Interleave, preload duration : 512 ms
    Service kind : Complete Main


    Онлайн видео Русский дубль (2010) DVDRip (сезон любимого сериала 1, серии 1



    Русский дубль (2010) DVDRip (сезон 1, серии 1-16 из 16)
    Рейтинг →
     (голосов: 1, оценка 4/5, голосовать можно 1 раз )

    Другие торренты по теме:

  • Кузя - Фабрика игр [от 5-и лет] (L) [Русский] (2006)
  • Телепузики. Любимые игры [2+] (L) [Русский] (2002)
  • Светлана Львова, Валентин Львов | Русский язык и литература. Русский язык. 11 класс. Базовый и углубленный уровни. Учебник (2014) [PDF]
  • Александр Агапов и др. | Русский русский Хоррор 2. Похороны (2017) [MP3]
  • Олег Кожин и др. | Русский Русский Хоррор (2015) [MP3]
  • Кадочников А.А. "Русский стиль" | Фильм 1. Русский рукопашный бой: Базовые упражнения и элементы | Фильм 2. Русский рукопашный бой: Захваты. Освобождение от захватов [часть 2,3 из 11]
  • Кадочников А.А. "Русский стиль" | Фильм 3. Русский Рукопашный бой: Удары. Защита от ударов | Фильм 4. Русский рукопашный бой: Работа против ножа. Холодное оружие [часть 4,5 из 11]
  • Г. Т. Егораева | ЕГЭ 2015. Русский язык. Экзаменационные тесты. Практикум по выполнению типовых тестовых заданий ЕГЭ (2014) [PDF]


    • Комментарии (0):

      Информация

      Информация

        Посетители, находящиеся в группе Гости, не могут оставлять комментарии в данной новости.

        ↓ Меню




        ↓ Опрос

        Вы добавили сайт в закладки?
        Да
        Нет


        Популярное