.
Авторизация | Регистрация

bitok.xyz

» » Миссис Флетчер / Mrs. Fletcher (2019) WEBRip (сезон 1, серии 1 из 8) JimmyJ (обновляемая) [AD] торрент скачать бесплатно


    Миссис Флетчер / Mrs. Fletcher (2019) WEBRip (сезон 1, серии 1 из 8) JimmyJ (обновляемая) [AD] торрент скачать бесплатно

    Дата: 30-10-2019, 05:00 | .torrent скачали: 1

    Миссис Флетчер / Mrs. Fletcher (2019) WEBRip (сезон 1, серии 1 из 8) JimmyJ (обновляемая) [AD]Производство: США | Home Box Office (HBO)
    Жанр: комедия
    Режиссер: Джиллиан Робеспьер, Николь Холофсенер

    Актеры
    Кэтрин Хан, Джен Ричардс, Оуэн Тиг, Джексон Уайт, Кейси Уилсон, Рашад Эдвардс, Доменик Ломбардоззи, Кэти Кершо, Эрика Николь Лэнс, Брет Тэмпл

    Описание

    Ив Флетчер — мать-одиночка, чей единственный ребёнок отправился учиться в колледж. Ив решает оживить свою личную жизнь и придумывает себе сексуальное альтер эго. Неожиданно она обнаруживает, что мир скрывает в себе бесконечные возможности для эротических подвигов.

    Дата мировой премьеры: 27 октября 2019
    Дата российской премьеры: 28 октября 2019
    Релиз от: JimmyJ
    Продолжительность: ~00: 30: 00 серия
    Качество видео: WEBRip
    Перевод: Двуголосый любительский (JimmyJ)
    Реклама: присутствуют видео, аудио, текстовые вставки рекламы
    Видео: XviD, 720х400 (16: 9), ~1970 kbps
    Аудио: MP3, 2 ch, 192 Kbps
    General
    Complete name : E: TorrentJimmyJMrs.Fletcher.S01.WEBRip.JimmyJMrs.Fletcher.S01E01.WEBRip.JimmyJ.avi
    Format : AVI
    Format/Info : Audio Video Interleave
    File size : 493 MiB
    Duration : 31 min 42 s
    Overall bit rate : 2 174 kb/s
    Writing application : Lavf58.20.100
    Video
    ID : 0
    Format : MPEG-4 Visual
    Format profile : Advanced Simple@L5
    Format settings, BVOP : No
    Format settings, QPel : No
    Format settings, GMC : No warppoints
    Format settings, Matrix : Default (H.263)
    Codec ID : XVID
    Codec ID/Hint : XviD
    Duration : 31 min 42 s
    Bit rate : 1 969 kb/s
    Width : 720 pixels
    Height : 400 pixels
    Display aspect ratio : 16: 9
    Frame rate : 23.976 (24000/1001) FPS
    Color space : YUV
    Chroma subsampling : 4: 2: 0
    Bit depth : 8 bits
    Scan type : Progressive
    Compression mode : Lossy
    Bits/(Pixel*Frame) : 0.285
    Stream size : 447 MiB (91%)
    Writing library : XviD 67
    Audio
    ID : 1
    Format : MPEG Audio
    Format version : Version 1
    Format profile : Layer 3
    Format settings : Joint stereo/MS Stereo
    Codec ID : 55
    Codec ID/Hint : MP3
    Duration : 31 min 42 s
    Bit rate mode : Constant
    Bit rate : 192 kb/s
    Channel(s) : 2 channels
    Sampling rate : 48.0 kHz
    Compression mode : Lossy
    Stream size : 43.5 MiB (9%)
    Alignment : Aligned on interleaves
    Interleave, duration : 24 ms (0.58 video frame)
    Title : DVO JimmyJ
    Writing library : LAME

    Скриншоты для ознакомления



    Все одноименные релизы в Клубе
    Время раздачи: 24/7 (до появления первых 3-5 скачавших)

    Онлайн видео Миссис Флетчер



    Миссис Флетчер/Mrs. Fletcher (2019) WEBRip (сезон 1, серии 1 из 8) JimmyJ (обновляемая) [AD]
    Рейтинг →
     (голосов: 1, оценка 3/5, голосовать можно 1 раз )

    Другие торренты по теме:

  • Миссис Флетчер / Mrs. Fletcher (2019) WEBRip [H.264 / 720p-LQ] (сезон 1, серии 1 из 8) JimmyJ (обновляемая) [AD]
  • Миссис Флетчер / Mrs. Fletcher (2019) WEBRip [H.264 / 1080p-LQ] (сезон 1, серии 1 из 8) JimmyJ (обновляемая) [AD]


    • Комментарии (0):

      Информация

      Информация

        Посетители, находящиеся в группе Гости, не могут оставлять комментарии в данной новости.

        ↓ Меню




        ↓ Опрос

        Вы добавили сайт в закладки?
        Да
        Нет


        Популярное