.
Авторизация | Регистрация

bitok.xyz

» » Как отмыть миллион / La chute de lempire americain (2018) BDRip торрент скачать бесплатно


    Как отмыть миллион / La chute de lempire americain (2018) BDRip торрент скачать бесплатно

    Дата: 31-10-2019, 05:00 | .torrent скачали: 0

    Как отмыть миллион / La chute de lempire americain (2018) BDRipПроизводство: Канада/Cinémaginaire Inc.
    Жанр: Комедия, криминал
    Режиссер: Дени Аркан

    Актеры
    Александр Ландри, Мари-Пьер Морен, Реми Жирар, Максим Рой, Эрик Брюно, Венсан Леклер, Жюльетт Госслен, Пьер Курци, Ян Инглэнд, Роз-Мари Перро

    Описание

    Скромняга Пьер-Поль, обладатель ученой степени, вынужден подрабатывать курьером. В один прекрасный день, доставляя очередную посылку, он первым оказывается на месте преступления и становится обладателем миллионного куша. Искушение решить все житейские проблемы велико. И пока он размышляет вернуть или присвоить огромную сумму наличных, его начинают преследовать бандиты, а полиция не спускает с него глаз. Спасаясь и от тех, и от других, интеллектуал Пьер-Поль встречает роковую красотку…

    Возраст: 16+ (зрителям, достигшим 16 лет)
    Рейтинг MPAA: R (лицам до 17 лет обязательно присутствие взрослого)
    Дата мировой премьеры: 19 июня 2018
    Дата премьеры в России: 1 августа 2019
    Цифровой релиз: 4 сентября 2019

    Продолжительность: 02: 07: 41
    Качество видео: BDRip
    Перевод: Профессиональный многоголосый (iTunes)
    Субтитры: Отсутствуют
    Видео: XviD, 720x304, ~1987 Kbps
    Аудио: AC-3, 6 ch, 384 Kbps
    Общее
    Полное имя : D: NNMКак отмыть миллионKak.otmytj.million.2018.BDRip.avi
    Формат : AVI
    Формат/Информация : Audio Video Interleave
    Профиль формата : OpenDML
    Размер файла : 2, 13 Гбайт
    Продолжительность : 2 ч. 7 м.
    Общий поток : 2383 Кбит/сек
    Программа кодирования : VirtualDubMod 1.5.10.3 |www.virtualdub-fr.org|| (build 2550/release)
    Библиотека кодирования : VirtualDubMod build 2550/release
    Видео
    Идентификатор : 0
    Формат : MPEG-4 Visual
    Профиль формата : Advanced Simple@L5
    Настройки формата : BVOP1/Custom Matrix
    Параметр BVOP формата : 1
    Параметр QPel формата : Нет
    Параметр GMC формата : Без точки перехода
    Параметр матрицы формата : Выборочная
    Идентификатор кодека : XVID
    Идентификатор кодека/Подсказка : XviD
    Продолжительность : 2 ч. 7 м.
    Битрейт : 1987 Кбит/сек
    Ширина : 720 пикселей
    Высота : 304 пикселя
    Соотношение сторон : 2, 35: 1
    Частота кадров : 23, 976 (24000/1001) кадра/сек
    Цветовое пространство : YUV
    Субдискретизация насыщенности : 4: 2: 0
    Битовая глубина : 8 бит
    Тип развёртки : Прогрессивная
    Метод сжатия : С потерями
    Бит/(Пиксели*Кадры) : 0.379
    Размер потока : 1, 77 Гбайт (83%)
    Библиотека кодирования : XviD 73
    Аудио
    Идентификатор : 1
    Формат : AC-3
    Формат/Информация : Audio Coding 3
    Коммерческое название : Dolby Digital
    Идентификатор кодека : 2000
    Продолжительность : 2 ч. 7 м.
    Вид битрейта : Постоянный
    Битрейт : 384 Кбит/сек
    Каналы : 6 каналов
    ChannelLayout : L R C LFE Ls Rs
    Частота : 48, 0 КГц
    Частота кадров : 31, 250 кадров/сек (1536 SPF)
    Битовая глубина : 16 бит
    Метод сжатия : С потерями
    Размер потока : 351 Мбайт (16%)
    Выравнивание : Разделение по промежуткам
    Продолжительность промежутка : 42 мс. (1, 00 видеокадр)
    Время предзагрузки промежутка : 500 мс.
    ServiceKind/String : Complete Main

    Скриншоты для ознакомления



    Все одноименные релизы в Клубе Время раздачи: 24/7 (до появления первых 3-5 скачавших)

    Онлайн видео Как отмыть миллион



    Как отмыть миллион/La chute de lempire americain (2018) BDRip
    Рейтинг →
     (голосов: 1, оценка 4/5, голосовать можно 1 раз )

    Другие торренты по теме:

  • Как отмыть миллион / La chute de lempire americain (2018) CAMRip [MVO] [AD]
  • Как отмыть миллион / La chute de lempire americain (2018) WEB-DLRip [H.264]
  • Как отмыть миллион / La chute de lempire americain (2018) WEB-DL [H.264 / 1080p-LQ]
  • Как отмыть миллион / La chute de lempire americain (2018) WEB-DLRip
  • Как отмыть миллион / La chute de lempire américain (2018) WEB-DL [H.264 / 720p-LQ]
  • Как отмыть миллион / La chute de lempire americain (2018) BDRip [H.264 / 1080p]
  • Как отмыть миллион / La chute de lempire americain (2018) BDRemux [H.264 / 1080p]
  • Как отмыть миллион / La chute de lempire americain (2018) BDRip [H.265] [10-bit]


    • Комментарии (0):

      Информация

      Информация

        Посетители, находящиеся в группе Гости, не могут оставлять комментарии в данной новости.

        ↓ Меню




        ↓ Опрос

        Вы добавили сайт в закладки?
        Да
        Нет


        Популярное