.
Авторизация | Регистрация

bitok.xyz

» » Выходные в штате Мэн / A Maine Movie (2018) WEBRip [MVO] [AD] торрент скачать бесплатно


    Выходные в штате Мэн / A Maine Movie (2018) WEBRip [MVO] [AD] торрент скачать бесплатно

    Дата: 31-10-2019, 05:00 | .torrent скачали: 1

    Выходные в штате Мэн / A Maine Movie (2018) WEBRip [MVO] [AD]Производство: США/Dog Spy Productions, Really Really Nice
    Жанр: Комедия
    Режиссер: Мэтт Нелсен

    Актеры
    Carmen Christopher, Ана Фабрега, Джессика Фрэй, Josh Greenwood, Wes Haney, Мэтт Нелсен, Элеанор Пьента, Лорелей Рамирес, Джон Рейнольдс, Гари Ричардсон

    Описание

    Сюжет разворачивается вокруг компании друзей с полностью разными интересами, которые решили вместе провести выходные в штате Мэн. Вам предстоит посмотреть комедию с легким юморком и потрясающей командой актеров-комедиантов из Нью-Йорка.

    Дата мировой премьеры: 1 января 2019
    Продолжительность: 01: 18: 26
    Качество видео: WEBRip
    Перевод: Многоголосый закадровый, любительский (AlphaProject)
    Субтитры: Отсутствуют
    Реклама: Присутствует баннер.
    Видео: XviD, 720x400, ~2455 Kbps
    Аудио: AC-3, 2 ch, 192 Kbps
    Общее
    Полное имя : D: NNMВыходные в штате МэнA.Maine.Movie.2018.WEBRip.avi
    Формат : AVI
    Формат/Информация : Audio Video Interleave
    Размер файла : 1, 46 Гбайт
    Продолжительность : 1 ч. 18 м.
    Общий поток : 2659 Кбит/сек
    Программа кодирования : VirtualDubMod 1.5.10.3 |www.virtualdub-fr.org|| (build 2550/release)
    Библиотека кодирования : VirtualDubMod build 2550/release
    Видео
    Идентификатор : 0
    Формат : MPEG-4 Visual
    Профиль формата : Advanced Simple@L5
    Настройки формата : BVOP1/Custom Matrix
    Параметр BVOP формата : 1
    Параметр QPel формата : Нет
    Параметр GMC формата : Без точки перехода
    Параметр матрицы формата : Выборочная
    Идентификатор кодека : XVID
    Идентификатор кодека/Подсказка : XviD
    Продолжительность : 1 ч. 18 м.
    Битрейт : 2455 Кбит/сек
    Ширина : 720 пикселей
    Высота : 400 пикселей
    Соотношение сторон : 16: 9
    Частота кадров : 29, 970 (30000/1001) кадров/сек
    Цветовое пространство : YUV
    Субдискретизация насыщенности : 4: 2: 0
    Битовая глубина : 8 бит
    Тип развёртки : Прогрессивная
    Метод сжатия : С потерями
    Бит/(Пиксели*Кадры) : 0.284
    Размер потока : 1, 35 Гбайт (92%)
    Библиотека кодирования : XviD 1.2.1 (UTC 2008-12-04)
    Аудио
    Идентификатор : 1
    Формат : AC-3
    Формат/Информация : Audio Coding 3
    Коммерческое название : Dolby Digital
    Идентификатор кодека : 2000
    Продолжительность : 1 ч. 18 м.
    Вид битрейта : Постоянный
    Битрейт : 192 Кбит/сек
    Каналы : 2 канала
    ChannelLayout : L R
    Частота : 48, 0 КГц
    Частота кадров : 31, 250 кадров/сек (1536 SPF)
    Битовая глубина : 16 бит
    Метод сжатия : С потерями
    Размер потока : 108 Мбайт (7%)
    Выравнивание : Разделение по промежуткам
    Продолжительность промежутка : 33 мс. (1, 00 видеокадр)
    Время предзагрузки промежутка : 500 мс.
    ServiceKind/String : Complete Main

    Скриншоты для ознакомления



    Все одноименные релизы в Клубе Время раздачи: 24/7 (до появления первых 3-5 скачавших)

    Онлайн видео Выходные в штате Мэн



    Выходные в штате Мэн/A Maine Movie (2018) WEBRip [MVO] [AD]
    Рейтинг →
     (голосов: 1, оценка 4/5, голосовать можно 1 раз )

    Другие торренты по теме:

  • Выходные в штате Мэн / A Maine Movie (2018) WEBRip [H.264 / 720p-LQ] [MVO] [AD]


    • Комментарии (0):

      Информация

      Информация

        Посетители, находящиеся в группе Гости, не могут оставлять комментарии в данной новости.

        ↓ Меню




        ↓ Опрос

        Вы добавили сайт в закладки?
        Да
        Нет


        Популярное