.
Авторизация | Регистрация

bitok.xyz

» » Форсаж: Хоббс и Шоу / Fast & Furious Presents: Hobbs & Shaw (2019) BDRip [H.264 / 720p] торрент скачать бесплатно


    Форсаж: Хоббс и Шоу / Fast & Furious Presents: Hobbs & Shaw (2019) BDRip [H.264 / 720p] торрент скачать бесплатно

    Дата: 31-10-2019, 05:00 | .torrent скачали: 0

    Форсаж: Хоббс и Шоу / Fast & Furious Presents: Hobbs & Shaw (2019) BDRip [H.264 / 720p]Производство: США/Universal Pictures
    Жанр: Боевик, приключения
    Режиссер: Дэвид Литч
    Продюсер: Хирам Гарсиа, Дуэйн Джонсон, Крис Морган

    Актеры
    Дуэйн Джонсон, Джейсон Стэйтем, Ванесса Кирби, Идрис Эльба, Эдди Марсан, Хелен Миррен, Райан Рейнольдс, Эйса Гонсалес, Клифф Кёртис, Элиана Суа

    Описание

    Люк Хоббс — американский элитный спецагент, он любит удобную спортивную одежду, большие пикапы и здоровое питание. Декард Шоу — британский пижон, бывший сотрудник разведки, предпочитает дорогие костюмы, спортивные авто и пабы.
    Эти двое терпеть друг друга не могут. Но если кто-то угрожает их семьям, они готовы пойти на всё. Даже на работу в команде.

    Возраст: 12+ (зрителям, достигшим 12 лет)
    Рейтинг MPAA: PG-13 (детям до 13 лет просмотр нежелателен)
    Дата мировой премьеры: 13 июля 2019
    Дата российской премьеры: 1 августа 2019, UPI
    Цифровой релиз: 26 сентября 2019, Universal
    Релиз от: NNMClub
    Продолжительность: 02: 16: 42
    Качество видео: BDRip 720p (Heisenberg )
    Перевод: Дублированный (iTunes)
    Субтитры: Русские (forced), английские (full, SDH, SDH-Colored)
    Видео: AVC/H.264, 1280x536, (2.40: 1), 3742 Kbps, 23.976 fps
    Аудио 1: AC3, 6 ch, 384 Kbps - Русский (DUB, iTunes)
    Аудио 2: AC3, 6 ch, 448 Kbps - АнглийскийGeneral
    Unique ID : 200297521342725540397620511182178663813 (0x96AFE63FFFC8D8C5941724CB457EBD85)
    Complete name : F: Fast.and.Furious.Presents.Hobbs.and.Shaw.2019.BDRip.720p.NNMClub.mkv
    Format : Matroska
    Format version : Version 4
    File size : 4.37 GiB
    Duration : 2 h 16 min
    Overall bit rate : 4 576 kb/s
    Movie name : Fast Furious Presents: Hobbs Shaw (2019) | NNMClub
    Encoded date : UTC 2019-10-30 10: 18: 28
    Writing application : mkvmerge v38.0.0 (\'The Silent Type\') 64-bit
    Writing library : libebml v1.3.9 + libmatroska v1.5.2
    Cover : Yes
    Attachments : Cover.jpg/x264.log
    Video
    ID : 1
    Format : AVC
    Format/Info : Advanced Video Codec
    Format profile : High@L4.1
    Format settings : CABAC/12 Ref Frames
    Format settings, CABAC : Yes
    Format settings, Reference : 12 frames
    Codec ID : V_MPEG4/ISO/AVC
    Duration : 2 h 16 min
    Bit rate : 3 742 kb/s
    Width : 1 280 pixels
    Height : 536 pixels
    Display aspect ratio : 2.40: 1
    Frame rate mode : Constant
    Frame rate : 23.976 (24000/1001) FPS
    Color space : YUV
    Chroma subsampling : 4: 2: 0
    Bit depth : 8 bits
    Scan type : Progressive
    Bits/(Pixel*Frame) : 0.227
    Stream size : 3.57 GiB (82%)
    Title : Fast Furious Presents: Hobbs Shaw (2019)
    Writing library : x264 core 158 r2984 3759fcb
    Encoding settings : cabac=1/ref=12/deblock=1: -3: -3/analyse=0x3: 0x133/me=esa/subme=11/psy=1/psy_rd=1.00: 0.00/mixed_ref=1/me_range=32/chroma_me=1/trellis=2/8x8dct=1/cqm=0/deadzone=21, 11/fast_pskip=0/chroma_qp_offset=-2/threads=12/lookahead_threads=2/sliced_threads=0/nr=0/decimate=0/interlaced=0/bluray_compat=0/constrained_intra=0/bframes=9/b_pyramid=2/b_adapt=2/b_bias=0/direct=3/weightb=1/open_gop=0/weightp=2/keyint=240/keyint_min=23/scenecut=40/intra_refresh=0/rc_lookahead=60/rc=2pass/mbtree=0/bitrate=3742/ratetol=1.0/qcomp=0.60/qpmin=0/qpmax=69/qpstep=4/cplxblur=20.0/qblur=0.5/vbv_maxrate=50000/vbv_bufsize=62500/nal_hrd=none/filler=0/ip_ratio=1.40/pb_ratio=1.30/aq=3: 0.80
    Language : English
    Default : Yes
    Forced : No
    Audio #1
    ID : 2
    Format : AC-3
    Format/Info : Audio Coding 3
    Commercial name : Dolby Digital
    Codec ID : A_AC3
    Duration : 2 h 16 min
    Bit rate mode : Constant
    Bit rate : 384 kb/s
    Channel(s) : 6 channels
    Channel layout : L R C LFE Ls Rs
    Sampling rate : 48.0 kHz
    Frame rate : 31.250 FPS (1536 SPF)
    Compression mode : Lossy
    Stream size : 375 MiB (8%)
    Title : DUB | iTunes
    Language : Russian
    Service kind : Complete Main
    Default : Yes
    Forced : No
    Audio #2
    ID : 3
    Format : AC-3
    Format/Info : Audio Coding 3
    Commercial name : Dolby Digital
    Codec ID : A_AC3
    Duration : 2 h 16 min
    Bit rate mode : Constant
    Bit rate : 448 kb/s
    Channel(s) : 6 channels
    Channel layout : L R C LFE Ls Rs
    Sampling rate : 48.0 kHz
    Frame rate : 31.250 FPS (1536 SPF)
    Compression mode : Lossy
    Stream size : 438 MiB (10%)
    Title : Original
    Language : English
    Service kind : Complete Main
    Default : No
    Forced : No
    Text #1
    ID : 4
    Format : UTF-8
    Codec ID : S_TEXT/UTF8
    Codec ID/Info : UTF-8 Plain Text
    Duration : 2 h 2 min
    Bit rate : 1 b/s
    Count of elements : 42
    Stream size : 1.36 KiB (0%)
    Title : Forced
    Language : Russian
    Default : Yes
    Forced : No
    Text #2
    ID : 5
    Format : UTF-8
    Codec ID : S_TEXT/UTF8
    Codec ID/Info : UTF-8 Plain Text
    Duration : 2 h 16 min
    Bit rate : 71 b/s
    Count of elements : 1916
    Stream size : 71.7 KiB (0%)
    Title : Full
    Language : English
    Default : No
    Forced : No
    Text #3
    ID : 6
    Format : UTF-8
    Codec ID : S_TEXT/UTF8
    Codec ID/Info : UTF-8 Plain Text
    Duration : 2 h 16 min
    Bit rate : 76 b/s
    Count of elements : 2194
    Stream size : 76.7 KiB (0%)
    Title : SDH
    Language : English
    Default : No
    Forced : No
    Text #4
    ID : 7
    Format : UTF-8
    Codec ID : S_TEXT/UTF8
    Codec ID/Info : UTF-8 Plain Text
    Duration : 2 h 16 min
    Bit rate : 107 b/s
    Count of elements : 2194
    Stream size : 108 KiB (0%)
    Title : SDH-Colored
    Language : English
    Default : No
    Forced : No
    Menu
    00: 00: 00.000 : en: Chapter 01
    00: 04: 58.130 : en: Chapter 02
    00: 13: 43.489 : en: Chapter 03
    00: 19: 21.451 : en: Chapter 04
    00: 26: 45.978 : en: Chapter 05
    00: 35: 41.514 : en: Chapter 06
    00: 40: 13.244 : en: Chapter 07
    00: 46: 22.029 : en: Chapter 08
    00: 51: 34.216 : en: Chapter 09
    00: 57: 51.801 : en: Chapter 10
    01: 01: 53.251 : en: Chapter 11
    01: 08: 45.162 : en: Chapter 12
    01: 14: 22.832 : en: Chapter 13
    01: 19: 48.073 : en: Chapter 14
    01: 24: 59.260 : en: Chapter 15
    01: 32: 58.197 : en: Chapter 16
    01: 38: 48.921 : en: Chapter 17
    01: 46: 32.969 : en: Chapter 18
    01: 53: 29.594 : en: Chapter 19
    02: 01: 14.809 : en: Chapter 20x264 info: profile High, level 4.1, 4: 2: 0, 8-bit
    x264 info: frame I: 2192 Avg QP: 14.00 size: 116433
    x264 info: frame P: 46561 Avg QP: 17.34 size: 37078
    x264 info: frame B: 147904 Avg QP: 19.18 size: 12535
    x264 info: consecutive B-frames: 3.6% 5.5% 9.6% 19.7% 16.5% 32.5% 6.5% 2.0% 2.8% 1.4%
    x264 info: mb I I16..4: 4.5% 80.1% 15.4%
    x264 info: mb P I16..4: 0.8% 13.2% 1.7% P16..4: 26.8% 34.0% 15.0% 2.8% 0.2% skip: 5.5%
    x264 info: mb B I16..4: 0.1% 1.4% 0.2% B16..8: 33.7% 24.3% 5.0% direct: 5.4% skip: 29.8% L0: 45.3% L1: 41.2% BI: 13.5%
    x264 info: 8x8 transform intra: 83.7% inter: 59.2%
    x264 info: direct mvs spatial: 98.3% temporal: 1.7%
    x264 info: coded y, uvDC, uvAC intra: 92.7% 84.1% 61.0% inter: 27.6% 23.3% 10.6%
    x264 info: i16 v, h, dc, p: 16% 11% 5% 69%
    x264 info: i8 v, h, dc, ddl, ddr, vr, hd, vl, hu: 12% 8% 5% 9% 14% 13% 14% 12% 13%
    x264 info: i4 v, h, dc, ddl, ddr, vr, hd, vl, hu: 12% 9% 4% 8% 16% 14% 15% 10% 12%
    x264 info: i8c dc, h, v, p: 37% 25% 20% 18%
    x264 info: Weighted P-Frames: Y: 4.4% UV: 3.1%
    x264 info: ref P L0: 51.3% 7.4% 15.8% 7.4% 5.3% 3.8% 3.0% 1.8% 1.4% 1.1% 0.9% 0.7% 0.1% 0.0%
    x264 info: ref B L0: 71.7% 13.5% 5.7% 2.9% 2.0% 1.4% 1.1% 0.7% 0.5% 0.3% 0.1%
    x264 info: ref B L1: 94.5% 5.5%
    x264 info: kb/s: 3740.99
    Скриншоты для ознакомления


    Все одноименные релизы в Клубе
    Время раздачи: 24/7 до первых 10-и скачавших

    Онлайн видео Форсаж: Хоббс и Шоу



    Форсаж: Хоббс и Шоу/Fast & Furious Presents: Hobbs & Shaw (2019) BDRip [H.264/720p]
    Рейтинг →
     (голосов: 1, оценка 4/5, голосовать можно 1 раз )

    Другие торренты по теме:

  • Форсаж: Хоббс и Шоу / Fast & Furious Presents: Hobbs & Shaw (2019) BDRemux [H.264 / 1080p] [3D / 2D] [ISO]
  • Форсаж: Хоббс и Шоу / Fast & Furious Presents: Hobbs & Shaw (2019) CAMRip [H.264 / 720p-LQ] [AD]
  • Форсаж: Хоббс и Шоу / Fast & Furious Presents: Hobbs & Shaw (2019) CAMRip [AD]
  • Форсаж: Хоббс и Шоу / Fast & Furious Presents: Hobbs & Shaw (2019) WEBRip [H.264 / 1080p] [EN / KOR Sub] [PR]
  • Форсаж: Хоббс и Шоу / Fast & Furious Presents: Hobbs & Shaw (2019) WEBRip [H.264] [UKR, EN / KOR Sub] [Line]
  • Форсаж: Хоббс и Шоу / Fast & Furious Presents: Hobbs & Shaw (2019) WEBRip [UKR / KOR Sub] [Line]
  • Форсаж: Хоббс и Шоу / Fast & Furious Presents: Hobbs & Shaw (2019) WEBRip [H.264 / 1080p-LQ] [UKR, EN / KOR Sub] [Line]
  • Форсаж: Хоббс и Шоу / Fast & Furious Presents: Hobbs & Shaw (2019) WEBRip [H.264 / 1080p-LQ] [Line] [AD]


    • Комментарии (0):

      Информация

      Информация

        Посетители, находящиеся в группе Гости, не могут оставлять комментарии в данной новости.

        ↓ Меню




        ↓ Опрос

        Вы добавили сайт в закладки?
        Да
        Нет


        Популярное