.
Авторизация | Регистрация

bitok.xyz

» » Человек-паук: Вдали от дома / Spider-Man: Far from Home (2019) UHD Blu-ray [H.265 / 2160p] [4K, HDR, Dolby Vision, 10-bit] [EUR] торрент скачать бесплатно


    Человек-паук: Вдали от дома / Spider-Man: Far from Home (2019) UHD Blu-ray [H.265 / 2160p] [4K, HDR, Dolby Vision, 10-bit] [EUR] торрент скачать бесплатно

    Дата: 31-10-2019, 05:00 | .torrent скачали: 0

    Человек-паук: Вдали от дома / Spider-Man: Far from Home (2019) UHD Blu-ray [H.265 / 2160p] [4K, HDR, Dolby Vision, 10-bit] [EUR]Производство: США/Columbia Pictures, Pascal Pictures, Marvel Studios
    Жанр: Фантастика, Боевик, Приключения
    Режиссер: Джон Уоттс

    Актеры
    Том Холланд, Сэмюэл Л. Джексон, Джейк Джилленхол, Зендея, Коби Смолдерс, Мариса Томей, Джон Фавро, Джейкоб Баталон, Тони Револори, Энгаури Райс

    Описание

    Питер Паркер вместе с друзьями отправляется на летние каникулы в Европу. Однако отдохнуть приятелям вряд ли удастся: Питеру придётся согласиться помочь Нику Фьюри раскрыть тайну существ, вызывающих стихийные бедствия и разрушения по всему континенту.

    Возраст: 12+ (зрителям, достигшим 12 лет)
    Рейтинг MPAA: PG (рекомендуется присутствие родителей)
    Дата мировой премьеры: 26 июня 2019
    Дата российской премьеры: 4 июля 2019, WDSSPR
    Продолжительность: 02: 09: 23
    Качество видео: UHD Blu-ray
    Перевод: Дублированный
    Субтитры: Русские, английские, немецкие, арабские, датские, эстонские, финские, французские, итальянские, казахские, литовские, латышские, нидерландские, бельгийские, норвежские, шведские, испанские, турецкие, украинские
    Видео: HEVC/H.265, 3840x2160, ~53, 6 Mbps
    Аудио 1: DTS-HD MA, 8 ch, 3717 Kbps - Английский
    Аудио 2: AC3, 6 ch, 640 Kbps - Английский
    Аудио 3: DTS-HD MA, 6 ch, 2363 Kbps - Французский
    Аудио 4: DTS-HD MA, 6 ch, 2357 Kbps - Немецкий
    Аудио 5: DTS-HD MA, 6 ch, 2351 Kbps - Итальянский
    Аудио 6: DTS-HD MA, 6 ch, 640 Kbps - Русский (DUB, Лицензия)
    Аудио 7: DTS-HD MA, 6 ch, 2374 Kbps - Испанский
    Аудио 8: AC3, 6 ch, 640 Kbps - Турецкий
    Аудио 9: AC3, 6 ch, 640 Kbps - Украинский
    Disc Title: Spider-Man: Far From Home – 4K Ultra HD
    Disc Label: Spider-Man.Far.from.Home.2019.MULTi.COMPLETE.UHD.BLURAY-PRECELL
    Disc Size: 75, 990, 247, 141 bytes
    Protection: AACS2
    Extras: Ultra HD, BD-Java
    BDInfo: 0.7.5.5
    Notes:
    BDINFO HOME:
    Cinema Squid (old)
    http://www.cinemasquid.com/blu-ray/tools/bdinfo
    UniqProject GitHub (new)
    https://github.com/UniqProject/BDInfo
    INCLUDES FORUMS REPORT FOR:
    AVS Forum Blu-ray Audio and Video Specifications Thread
    http://www.avsforum.com/avs-vb/showthread.php?t=1155731
    ********************
    PLAYLIST: 00001.MPLS
    ********************
    --- BEGIN FORUMS PASTE ---
    Код: выделить все
    Total Video
    Title Codec Length Movie Size Disc Size Bitrate Bitrate Main Audio Track Secondary Audio Track
    ----- ------ ------- -------------- -------------- ------- ------- ------------------ ---------------------
    00001.MPLS HEVC 2:09:23 75, 349, 856, 256 75, 990, 247, 141 77.64 53.66 Dolby Atmos 7.1 3717Kbps (48kHz/24-bit) DD AC3 5.1 640Kbps

    Код: выделить все
    DISC INFO:
    Disc Title: Spider-Man: Far From Home – 4K Ultra HD
    Disc Label: Spider-Man.Far.from.Home.2019.MULTi.COMPLETE.UHD.BLURAY-PRECELL
    Disc Size: 75, 990, 247, 141 bytes
    Protection: AACS2
    Extras: Ultra HD, BD-Java
    BDInfo: 0.7.5.5
    PLAYLIST REPORT:
    Name: 00001.MPLS
    Length: 2:09:23.755 (h:m:s.ms)
    Size: 75, 349, 856, 256 bytes
    Total Bitrate: 77.64 Mbps
    (*) Indicates included stream hidden by this playlist.
    VIDEO:
    Codec Bitrate Description
    ----- ------- -----------
    MPEG-H HEVC Video 53655 kbps 2160p/23.976 fps/16:9/Main 10 @ Level 5.1 @ High/10 bits/HDR10/BT.2020
    * MPEG-H HEVC Video 2095 kbps 1080p/23.976 fps/16:9/Main 10 @ Level 5.1 @ High/10 bits/Dolby Vision/BT.2020
    AUDIO:
    Codec Language Bitrate Description
    ----- -------- ------- -----------
    Dolby TrueHD/Atmos Audio English 3717 kbps 7.1/48 kHz / 3077 kbps/24-bit (AC3 Embedded: 5.1/48 kHz / 640 kbps/DN -31dB)
    Dolby Digital Audio English 640 kbps 5.1/48 kHz / 640 kbps/DN -31dB
    DTS-HD Master Audio French 2363 kbps 5.1/48 kHz / 2363 kbps/16-bit (DTS Core: 5.1/48 kHz / 1509 kbps/16-bit)
    DTS-HD Master Audio German 2357 kbps 5.1/48 kHz / 2357 kbps/16-bit (DTS Core: 5.1/48 kHz / 1509 kbps/16-bit)
    DTS-HD Master Audio Italian 2351 kbps 5.1/48 kHz / 2351 kbps/16-bit (DTS Core: 5.1/48 kHz / 1509 kbps/16-bit)
    Dolby Digital Audio Russian 640 kbps 5.1/48 kHz / 640 kbps/DN -31dB
    DTS-HD Master Audio Spanish 2374 kbps 5.1/48 kHz / 2374 kbps/16-bit (DTS Core: 5.1/48 kHz / 1509 kbps/16-bit)
    Dolby Digital Audio Turkish 640 kbps 5.1/48 kHz / 640 kbps/DN -31dB
    Dolby Digital Audio Ukrainian 640 kbps 5.1/48 kHz / 640 kbps/DN -31dB
    SUBTITLES:
    Codec Language Bitrate Description
    ----- -------- ------- -----------
    Presentation Graphics English 38.421 kbps
    Presentation Graphics English 41.728 kbps
    Presentation Graphics Arabic 20.070 kbps
    Presentation Graphics Danish 31.277 kbps
    Presentation Graphics Dutch 31.695 kbps
    Presentation Graphics Dutch 30.638 kbps
    Presentation Graphics Estonian 32.866 kbps
    Presentation Graphics Finnish 32.321 kbps
    Presentation Graphics French 31.425 kbps
    Presentation Graphics German 38.208 kbps
    Presentation Graphics Italian 34.510 kbps
    Presentation Graphics Kazakh 37.626 kbps
    Presentation Graphics Latvian 32.598 kbps
    Presentation Graphics Lithuanian 32.835 kbps
    Presentation Graphics Norwegian 32.293 kbps
    Presentation Graphics Russian 33.461 kbps
    Presentation Graphics Spanish 34.797 kbps
    Presentation Graphics Swedish 31.306 kbps
    Presentation Graphics Turkish 36.467 kbps
    Presentation Graphics Ukrainian 34.292 kbps
    FILES:
    Name Time In Length Size Total Bitrate
    ---- ------- ------ ---- -------------
    00001.M2TS 0:00:00.000 2:09:23.755 75, 349, 856, 256 77, 643
    CHAPTERS:
    Number Time In Length Avg Video Rate Max 1-Sec Rate Max 1-Sec Time Max 5-Sec Rate Max 5-Sec Time Max 10Sec Rate Max 10Sec Time Avg Frame Size Max Frame Size Max Frame Time
    ------ ------- ------ -------------- -------------- -------------- -------------- -------------- -------------- -------------- -------------- -------------- --------------
    1 0:00:00.000 0:09:35.032 54, 380 kbps 95, 910 kbps 00:01:51.236 83, 618 kbps 00:00:52.052 81, 634 kbps 00:00:48.173 0 bytes 1, 235, 511 bytes 00:01:51.569
    2 0:09:35.032 0:06:31.682 55, 631 kbps 85, 730 kbps 00:15:45.778 76, 175 kbps 00:15:41.899 69, 583 kbps 00:14:07.471 0 bytes 1, 120, 548 bytes 00:15:45.861
    3 0:16:06.715 0:09:11.759 58, 144 kbps 102, 931 kbps 00:24:26.047 81, 499 kbps 00:22:10.787 77, 805 kbps 00:17:15.701 0 bytes 1, 230, 313 bytes 00:18:33.362
    4 0:25:18.475 0:10:08.024 54, 793 kbps 91, 727 kbps 00:33:28.256 76, 619 kbps 00:31:20.378 75, 729 kbps 00:31:15.331 0 bytes 1, 086, 570 bytes 00:34:01.456
    5 0:35:26.499 0:06:30.515 57, 347 kbps 92, 436 kbps 00:35:36.008 86, 792 kbps 00:35:36.050 76, 953 kbps 00:35:30.753 0 bytes 1, 376, 004 bytes 00:35:35.174
    6 0:41:57.014 0:07:53.014 59, 362 kbps 92, 302 kbps 00:45:00.656 76, 402 kbps 00:43:31.692 71, 761 kbps 00:44:52.147 0 bytes 1, 127, 841 bytes 00:47:01.360
    7 0:49:50.028 0:07:19.480 63, 158 kbps 101, 256 kbps 00:49:58.203 85, 998 kbps 00:49:58.203 76, 285 kbps 00:49:53.782 0 bytes 1, 114, 530 bytes 00:49:58.620
    8 0:57:09.509 0:07:41.127 55, 898 kbps 77, 689 kbps 01:03:03.196 71, 786 kbps 01:03:03.029 66, 827 kbps 01:01:05.203 0 bytes 980, 843 bytes 01:01:12.585
    9 1:04:50.636 0:11:06.582 57, 630 kbps 92, 486 kbps 01:11:23.028 79, 786 kbps 01:11:36.917 73, 052 kbps 01:11:36.917 0 bytes 1, 212, 818 bytes 01:15:57.219
    10 1:15:57.219 0:06:51.869 53, 807 kbps 106, 408 kbps 01:16:37.843 79, 301 kbps 01:19:59.961 77, 225 kbps 01:19:55.081 0 bytes 1, 363, 898 bytes 01:22:08.715
    11 1:22:49.089 0:06:36.104 61, 081 kbps 92, 919 kbps 01:26:20.425 82, 029 kbps 01:29:08.217 74, 036 kbps 01:29:08.217 0 bytes 1, 273, 705 bytes 01:25:00.970
    12 1:29:25.193 0:07:18.062 57, 198 kbps 110, 465 kbps 01:33:00.324 81, 287 kbps 01:33:00.324 76, 406 kbps 01:33:00.324 0 bytes 1, 209, 107 bytes 01:31:51.672
    13 1:36:43.255 0:08:04.108 55, 880 kbps 99, 694 kbps 01:39:02.895 79, 127 kbps 01:41:56.443 71, 854 kbps 01:41:54.650 0 bytes 1, 144, 652 bytes 01:38:34.825
    14 1:44:47.364 0:07:30.032 51, 801 kbps 105, 258 kbps 01:46:07.486 74, 522 kbps 01:46:03.482 68, 548 kbps 01:44:47.364 0 bytes 1, 100, 010 bytes 01:46:04.608
    15 1:52:17.397 0:05:28.036 62, 669 kbps 104, 210 kbps 01:56:13.049 82, 186 kbps 01:57:26.372 78, 731 kbps 01:57:24.370 0 bytes 1, 308, 952 bytes 01:57:28.291
    16 1:57:45.433 0:11:38.322 19, 122 kbps 107, 827 kbps 02:07:24.303 78, 183 kbps 02:07:24.303 72, 763 kbps 02:07:20.049 0 bytes 1, 053, 818 bytes 02:07:24.345
    STREAM DIAGNOSTICS:
    File PID Type Codec Language Seconds Bitrate Bytes Packets
    ---- --- ---- ----- -------- -------------- -------------- ------------- -----
    00001.M2TS 4113 (0x1011) 0x24 HEVC 7763.589 53, 656 52, 070, 786, 007 283, 101, 832
    00001.M2TS 4117 (0x1015) 0x24 HEVC 7763.589 2, 095 2, 032, 654, 160 11, 164, 939
    00001.M2TS 4352 (0x1100) 0x83 Atmos eng (English) 7763.589 3, 717 3, 607, 222, 262 24, 743, 065
    00001.M2TS 4353 (0x1101) 0x81 AC3 eng (English) 7763.589 640 621, 102, 080 3, 639, 270
    00001.M2TS 4354 (0x1102) 0x86 DTS-HD MA fra (French) 7763.589 2, 363 2, 293, 030, 792 13, 709, 982
    00001.M2TS 4355 (0x1103) 0x86 DTS-HD MA deu (German) 7763.589 2, 357 2, 287, 390, 448 13, 685, 494
    00001.M2TS 4356 (0x1104) 0x86 DTS-HD MA ita (Italian) 7763.589 2, 351 2, 281, 334, 184 13, 636, 460
    00001.M2TS 4357 (0x1105) 0x81 AC3 rus (Russian) 7763.589 640 621, 102, 080 3, 639, 270
    00001.M2TS 4358 (0x1106) 0x86 DTS-HD MA spa (Spanish) 7763.589 2, 375 2, 304, 373, 020 13, 755, 247
    00001.M2TS 4359 (0x1107) 0x81 AC3 tur (Turkish) 7763.589 640 621, 102, 080 3, 639, 270
    00001.M2TS 4360 (0x1108) 0x81 AC3 ukr (Ukrainian) 7763.589 640 621, 102, 080 3, 639, 270
    00001.M2TS 4768 (0x12A0) 0x90 PGS eng (English) 7763.589 38 37, 286, 384 214, 278
    00001.M2TS 4769 (0x12A1) 0x90 PGS eng (English) 7763.589 42 40, 495, 890 233, 068
    00001.M2TS 4770 (0x12A2) 0x90 PGS ara (Arabic) 7763.589 20 19, 477, 150 117, 446
    00001.M2TS 4771 (0x12A3) 0x90 PGS dan (Danish) 7763.589 31 30, 353, 187 173, 825
    00001.M2TS 4772 (0x12A4) 0x90 PGS nld (Dutch) 7763.589 32 30, 759, 214 177, 938
    00001.M2TS 4773 (0x12A5) 0x90 PGS nld (Dutch) 7763.589 31 29, 732, 948 170, 255
    00001.M2TS 4774 (0x12A6) 0x90 PGS est (Estonian) 7763.589 33 31, 895, 663 185, 669
    00001.M2TS 4775 (0x12A7) 0x90 PGS fin (Finnish) 7763.589 32 31, 366, 991 182, 665
    00001.M2TS 4776 (0x12A8) 0x90 PGS fra (French) 7763.589 31 30, 496, 681 176, 985
    00001.M2TS 4777 (0x12A9) 0x90 PGS deu (German) 7763.589 38 37, 079, 262 213, 288
    00001.M2TS 4778 (0x12AA) 0x90 PGS ita (Italian) 7763.589 35 33, 490, 770 193, 147
    00001.M2TS 4779 (0x12AB) 0x90 PGS kaz (Kazakh) 7763.589 38 36, 514, 938 210, 137
    00001.M2TS 4780 (0x12AC) 0x90 PGS lav (Latvian) 7763.589 33 31, 635, 537 184, 269
    00001.M2TS 4781 (0x12AD) 0x90 PGS lit (Lithuanian) 7763.589 33 31, 865, 026 184, 637
    00001.M2TS 4782 (0x12AE) 0x90 PGS nor (Norwegian) 7763.589 32 31, 339, 192 180, 009
    00001.M2TS 4783 (0x12AF) 0x90 PGS rus (Russian) 7763.589 33 32, 473, 239 187, 698
    00001.M2TS 4784 (0x12B0) 0x90 PGS spa (Spanish) 7763.589 35 33, 769, 181 194, 974
    00001.M2TS 4785 (0x12B1) 0x90 PGS swe (Swedish) 7763.589 31 30, 381, 486 173, 999
    00001.M2TS 4786 (0x12B2) 0x90 PGS tur (Turkish) 7763.589 36 35, 390, 404 203, 886
    00001.M2TS 4787 (0x12B3) 0x90 PGS ukr (Ukrainian) 7763.589 34 33, 279, 522 192, 712

    ---- END FORUMS PASTE ----
    QUICK SUMMARY:
    Disc Title: Spider-Man: Far From Home – 4K Ultra HD
    Disc Label: Spider-Man.Far.from.Home.2019.MULTi.COMPLETE.UHD.BLURAY-PRECELL
    Disc Size: 75, 990, 247, 141 bytes
    Protection: AACS2
    Playlist: 00001.MPLS
    Size: 75, 349, 856, 256 bytes
    Length: 2: 09: 23.755
    Total Bitrate: 77.64 Mbps
    Video: MPEG-H HEVC Video/53655 kbps/2160p/23.976 fps/16: 9/Main 10 @ Level 5.1 @ High/10 bits/HDR10/BT.2020
    * Video: MPEG-H HEVC Video/2095 kbps/1080p/23.976 fps/16: 9/Main 10 @ Level 5.1 @ High/10 bits/Dolby Vision/BT.2020
    Audio: English/Dolby TrueHD/Atmos Audio/7.1/48 kHz/3077 kbps/24-bit (AC3 Embedded: 5.1/48 kHz/640 kbps/DN -31dB)
    Audio: English/Dolby Digital Audio/5.1/48 kHz/640 kbps/DN -31dB
    Audio: French/DTS-HD Master Audio/5.1/48 kHz/2363 kbps/16-bit (DTS Core: 5.1/48 kHz/1509 kbps/16-bit)
    Audio: German/DTS-HD Master Audio/5.1/48 kHz/2357 kbps/16-bit (DTS Core: 5.1/48 kHz/1509 kbps/16-bit)
    Audio: Italian/DTS-HD Master Audio/5.1/48 kHz/2351 kbps/16-bit (DTS Core: 5.1/48 kHz/1509 kbps/16-bit)
    Audio: Russian/Dolby Digital Audio/5.1/48 kHz/640 kbps/DN -31dB
    Audio: Spanish/DTS-HD Master Audio/5.1/48 kHz/2374 kbps/16-bit (DTS Core: 5.1/48 kHz/1509 kbps/16-bit)
    Audio: Turkish/Dolby Digital Audio/5.1/48 kHz/640 kbps/DN -31dB
    Audio: Ukrainian/Dolby Digital Audio/5.1/48 kHz/640 kbps/DN -31dB
    Subtitle: English/38.421 kbps
    Subtitle: English/41.728 kbps
    Subtitle: Arabic/20.070 kbps
    Subtitle: Danish/31.277 kbps
    Subtitle: Dutch/31.695 kbps
    Subtitle: Dutch/30.638 kbps
    Subtitle: Estonian/32.866 kbps
    Subtitle: Finnish/32.321 kbps
    Subtitle: French/31.425 kbps
    Subtitle: German/38.208 kbps
    Subtitle: Italian/34.510 kbps
    Subtitle: Kazakh/37.626 kbps
    Subtitle: Latvian/32.598 kbps
    Subtitle: Lithuanian/32.835 kbps
    Subtitle: Norwegian/32.293 kbps
    Subtitle: Russian/33.461 kbps
    Subtitle: Spanish/34.797 kbps
    Subtitle: Swedish/31.306 kbps
    Subtitle: Turkish/36.467 kbps
    Subtitle: Ukrainian/34.292 kbps
    ********************
    PLAYLIST: 00102.MPLS
    ********************
    --- BEGIN FORUMS PASTE ---
    Код: выделить все
    Total Video
    Title Codec Length Movie Size Disc Size Bitrate Bitrate Main Audio Track Secondary Audio Track
    ----- ------ ------- -------------- -------------- ------- ------- ------------------ ---------------------
    00102.MPLS HEVC 0:03:36 7, 698, 432 75, 990, 247, 141 0.28 0.21

    Код: выделить все
    DISC INFO:
    Disc Title: Spider-Man: Far From Home – 4K Ultra HD
    Disc Label: Spider-Man.Far.from.Home.2019.MULTi.COMPLETE.UHD.BLURAY-PRECELL
    Disc Size: 75, 990, 247, 141 bytes
    Protection: AACS2
    Extras: Ultra HD, BD-Java
    BDInfo: 0.7.5.5
    PLAYLIST REPORT:
    Name: 00102.MPLS
    Length: 0:03:36.883 (h:m:s.ms)
    Size: 7, 698, 432 bytes
    Total Bitrate: 0.28 Mbps
    VIDEO:
    Codec Bitrate Description
    ----- ------- -----------
    MPEG-H HEVC Video 205 kbps 2160p/23.976 fps/16:9/Main 10 @ Level 5.1 @ High/10 bits/HDR10/BT.2020
    FILES:
    Name Time In Length Size Total Bitrate
    ---- ------- ------ ---- -------------
    00102.M2TS 0:00:00.000 0:03:36.883 7, 698, 432 284
    CHAPTERS:
    Number Time In Length Avg Video Rate Max 1-Sec Rate Max 1-Sec Time Max 5-Sec Rate Max 5-Sec Time Max 10Sec Rate Max 10Sec Time Avg Frame Size Max Frame Size Max Frame Time
    ------ ------- ------ -------------- -------------- -------------- -------------- -------------- -------------- -------------- -------------- -------------- --------------
    1 0:00:00.000 0:00:12.012 195 kbps 373 kbps 00:00:00.875 210 kbps 00:00:00.875 189 kbps 00:00:00.875 0 bytes 12, 511 bytes 00:00:12.012
    2 0:00:12.012 0:00:11.011 183 kbps 264 kbps 00:00:16.891 204 kbps 00:00:12.887 184 kbps 00:00:12.846 0 bytes 12, 550 bytes 00:00:16.016
    3 0:00:23.023 0:00:11.010 182 kbps 267 kbps 00:00:33.033 204 kbps 00:00:29.029 184 kbps 00:00:24.024 0 bytes 13, 285 bytes 00:00:34.034
    4 0:00:34.034 0:00:11.011 188 kbps 284 kbps 00:00:34.909 199 kbps 00:00:34.826 189 kbps 00:00:34.409 0 bytes 13, 309 bytes 00:00:34.951
    5 0:00:45.045 0:00:11.010 191 kbps 277 kbps 00:00:45.920 214 kbps 00:00:45.920 193 kbps 00:00:45.670 0 bytes 13, 217 bytes 00:00:48.048
    6 0:00:56.056 0:00:11.011 199 kbps 291 kbps 00:01:03.229 216 kbps 00:01:02.062 206 kbps 00:00:56.931 0 bytes 13, 213 bytes 00:01:04.064
    7 0:01:07.067 0:00:11.010 174 kbps 249 kbps 00:01:07.692 188 kbps 00:01:13.073 175 kbps 00:01:07.984 0 bytes 11, 004 bytes 00:01:07.734
    8 0:01:18.078 0:00:11.010 171 kbps 253 kbps 00:01:19.621 178 kbps 00:01:18.078 177 kbps 00:01:18.453 0 bytes 11, 849 bytes 00:01:20.080
    9 0:01:29.089 0:00:11.010 179 kbps 251 kbps 00:01:35.261 185 kbps 00:01:35.095 180 kbps 00:01:30.090 0 bytes 11, 695 bytes 00:01:36.096
    10 0:01:40.100 0:00:11.011 184 kbps 258 kbps 00:01:50.110 201 kbps 00:01:46.106 183 kbps 00:01:41.101 0 bytes 12, 199 bytes 00:01:51.111
    11 0:01:51.111 0:00:11.011 171 kbps 260 kbps 00:01:51.986 182 kbps 00:01:51.778 173 kbps 00:01:51.361 0 bytes 12, 105 bytes 00:01:52.028
    12 0:02:02.122 0:00:11.010 172 kbps 247 kbps 00:02:06.084 194 kbps 00:02:02.997 176 kbps 00:02:02.831 0 bytes 11, 200 bytes 00:02:06.126
    13 0:02:13.133 0:00:11.010 204 kbps 285 kbps 00:02:13.424 221 kbps 00:02:16.177 203 kbps 00:02:14.092 0 bytes 13, 486 bytes 00:02:21.141
    14 0:02:24.144 0:00:11.010 180 kbps 266 kbps 00:02:24.769 195 kbps 00:02:30.150 180 kbps 00:02:25.061 0 bytes 12, 709 bytes 00:02:24.811
    15 0:02:35.155 0:00:11.010 189 kbps 287 kbps 00:02:35.155 218 kbps 00:02:35.780 196 kbps 00:02:35.363 0 bytes 13, 663 bytes 00:02:36.156
    16 0:02:46.166 0:00:11.010 201 kbps 300 kbps 00:02:46.166 222 kbps 00:02:46.166 202 kbps 00:02:47.083 0 bytes 13, 167 bytes 00:02:51.171
    17 0:02:57.177 0:00:11.010 204 kbps 285 kbps 00:02:57.552 221 kbps 00:03:01.222 205 kbps 00:02:58.178 0 bytes 13, 322 bytes 00:03:06.186
    18 0:03:08.188 0:00:11.011 203 kbps 402 kbps 00:03:18.198 237 kbps 00:03:14.194 204 kbps 00:03:09.189 0 bytes 29, 395 bytes 00:03:19.199
    19 0:03:19.199 0:00:04.170 418 kbps 582 kbps 00:03:20.241 0 kbps 00:00:00.000 0 kbps 00:00:00.000 0 bytes 29, 617 bytes 00:03:21.201
    20 0:03:23.369 0:00:04.170 340 kbps 671 kbps 00:03:26.497 0 kbps 00:00:00.000 0 kbps 00:00:00.000 0 bytes 54, 800 bytes 00:03:27.457
    21 0:03:27.540 0:00:04.170 566 kbps 1, 080 kbps 00:03:30.668 0 kbps 00:00:00.000 0 kbps 00:00:00.000 0 bytes 61, 124 bytes 00:03:31.669
    22 0:03:31.711 0:00:05.171 327 kbps 596 kbps 00:03:33.421 332 kbps 00:03:31.711 0 kbps 00:00:00.000 0 bytes 30, 155 bytes 00:03:32.545
    STREAM DIAGNOSTICS:
    File PID Type Codec Language Seconds Bitrate Bytes Packets
    ---- --- ---- ----- -------- -------------- -------------- ------------- -----
    00102.M2TS 4113 (0x1011) 0x24 HEVC 216.800 205 5, 563, 882 32, 826

    ---- END FORUMS PASTE ----
    QUICK SUMMARY:
    Disc Title: Spider-Man: Far From Home – 4K Ultra HD
    Disc Label: Spider-Man.Far.from.Home.2019.MULTi.COMPLETE.UHD.BLURAY-PRECELL
    Disc Size: 75, 990, 247, 141 bytes
    Protection: AACS2
    Playlist: 00102.MPLS
    Size: 7, 698, 432 bytes
    Length: 0: 03: 36.883
    Total Bitrate: 0.28 Mbps
    Video: MPEG-H HEVC Video/205 kbps/2160p/23.976 fps/16: 9/Main 10 @ Level 5.1 @ High/10 bits/HDR10/BT.2020
    ********************
    PLAYLIST: 00081.MPLS
    ********************
    --- BEGIN FORUMS PASTE ---
    Код: выделить все
    Total Video
    Title Codec Length Movie Size Disc Size Bitrate Bitrate Main Audio Track Secondary Audio Track
    ----- ------ ------- -------------- -------------- ------- ------- ------------------ ---------------------
    00081.MPLS HEVC 0:00:23 1, 615, 872 75, 990, 247, 141 0.56 0.08

    Код: выделить все
    DISC INFO:
    Disc Title: Spider-Man: Far From Home – 4K Ultra HD
    Disc Label: Spider-Man.Far.from.Home.2019.MULTi.COMPLETE.UHD.BLURAY-PRECELL
    Disc Size: 75, 990, 247, 141 bytes
    Protection: AACS2
    Extras: Ultra HD, BD-Java
    BDInfo: 0.7.5.5
    PLAYLIST REPORT:
    Name: 00081.MPLS
    Length: 0:00:23.022 (h:m:s.ms)
    Size: 1, 615, 872 bytes
    Total Bitrate: 0.56 Mbps
    (*) Indicates included stream hidden by this playlist.
    VIDEO:
    Codec Bitrate Description
    ----- ------- -----------
    MPEG-H HEVC Video 84 kbps 2160p/23.976 fps/16:9/Main 10 @ Level 5.1 @ High/10 bits/HDR10/BT.2020
    * MPEG-H HEVC Video 118 kbps 1080p/23.976 fps/16:9/Main 10 @ Level 5.1 @ High/10 bits/Dolby Vision/BT.2020
    SUBTITLES:
    Codec Language Bitrate Description
    ----- -------- ------- -----------
    Presentation Graphics Portuguese 254.171 kbps
    FILES:
    Name Time In Length Size Total Bitrate
    ---- ------- ------ ---- -------------
    00081.M2TS 0:00:00.000 0:00:23.022 1, 615, 872 561
    CHAPTERS:
    Number Time In Length Avg Video Rate Max 1-Sec Rate Max 1-Sec Time Max 5-Sec Rate Max 5-Sec Time Max 10Sec Rate Max 10Sec Time Avg Frame Size Max Frame Size Max Frame Time
    ------ ------- ------ -------------- -------------- -------------- -------------- -------------- -------------- -------------- -------------- -------------- --------------
    1 0:00:00.000 0:00:23.022 84 kbps 100 kbps 00:00:03.628 91 kbps 00:00:04.212 86 kbps 00:00:03.753 0 bytes 3, 065 bytes 00:00:00.792
    STREAM DIAGNOSTICS:
    File PID Type Codec Language Seconds Bitrate Bytes Packets
    ---- --- ---- ----- -------- -------------- -------------- ------------- -----
    00081.M2TS 4113 (0x1011) 0x24 HEVC 22.856 85 241, 772 1, 554
    00081.M2TS 4117 (0x1015) 0x24 HEVC 22.856 119 339, 047 2, 058
    00081.M2TS 4768 (0x12A0) 0x90 PGS por (Portuguese) 22.856 256 731, 473 4, 030

    ---- END FORUMS PASTE ----
    QUICK SUMMARY:
    Disc Title: Spider-Man: Far From Home – 4K Ultra HD
    Disc Label: Spider-Man.Far.from.Home.2019.MULTi.COMPLETE.UHD.BLURAY-PRECELL
    Disc Size: 75, 990, 247, 141 bytes
    Protection: AACS2
    Playlist: 00081.MPLS
    Size: 1, 615, 872 bytes
    Length: 0: 00: 23.022
    Total Bitrate: 0.56 Mbps
    Video: MPEG-H HEVC Video/84 kbps/2160p/23.976 fps/16: 9/Main 10 @ Level 5.1 @ High/10 bits/HDR10/BT.2020
    * Video: MPEG-H HEVC Video/118 kbps/1080p/23.976 fps/16: 9/Main 10 @ Level 5.1 @ High/10 bits/Dolby Vision/BT.2020
    Subtitle: Portuguese/254.171 kbps

    Диск на Blu-ray.com
    Просмотр 4K HDR-контента на ПК
    Скриншоты для ознакомления



    Все одноименные релизы в Клубе
    Время раздачи: Мультитрекер (до появления первых 3-5 скачавших)

    Онлайн видео Человек-паук: Вдали от дома



    Человек-паук: Вдали от дома/Spider-Man: Far from Home (2019) UHD Blu-ray [H.265/2160p] [4K, HDR, Dolby Vision, 10-bit] [EUR]
    Рейтинг →
     (голосов: 1, оценка 3/5, голосовать можно 1 раз )

    Другие торренты по теме:

  • Человек-паук: Вдали от дома / Spider-Man: Far From Home (2019) WEBRip [H.264 / 1080p] [Трейлер] [EN]
  • Человек-паук: Вдали от дома / Spider-Man: Far from Home (2019) CamRip [H.264 / 720p-LQ] [MVO] [AD]
  • Человек-паук: Вдали от дома / Spider-Man: Far from Home (2019) CamRip [H.264 / 720p-LQ] [AD]
  • Michael Giacchino - Spider-Man: Far from Home / Человек-паук: Вдали от дома (Original Motion Picture Soundtrack) (2019) [FLAC|Lossless|WEB-DL|tracks]<Soundtrack>
  • Michael Giacchino - Spider-Man: Far from Home / Человек-паук: Вдали от дома (Original Motion Picture Soundtrack) (2019) [MP3|320 кб / с]<Soundtrack>
  • Человек-паук: Вдали от дома / Spider-Man: Far from Home (2019) TS [H.264 / 720p-LQ] [AD]
  • Человек-паук: Вдали от дома / Spider-Man: Far from Home (2019) WEB-DLRip [Line] [AD]
  • Человек-паук: Вдали от дома / Spider-Man: Far from Home (2019) WEB-DLRip [H.264 / 1080p-LQ] [Line, AD]


    • Комментарии (0):

      Информация

      Информация

        Посетители, находящиеся в группе Гости, не могут оставлять комментарии в данной новости.

        ↓ Меню




        ↓ Опрос

        Вы добавили сайт в закладки?
        Да
        Нет


        Популярное