.
Авторизация | Регистрация

bitok.xyz

» » Искусство обмана / Lying and Stealing (2019) BDRip торрент скачать бесплатно


    Искусство обмана / Lying and Stealing (2019) BDRip торрент скачать бесплатно

    Дата: 31-10-2019, 05:00 | .torrent скачали: 4

    Искусство обмана / Lying and Stealing (2019) BDRipПроизводство: США/A Cota films Production
    Жанр: Комедия, криминал
    Режиссер: Мэтт Аселтон

    Актеры
    Тео Джеймс, Эмили Ратаковски, Арис Альварадо, Фернанда Андраде, Тим Бейдер, Джо Букаро III, Род Чауки, Рэй Рэй Чейз, Миа Чунг, Фрэнк Клем

    Описание

    Он — эксперт по искусству, вернее… его хищению. Она — модель с задатками актрисы и высоким IQ. Оба любят деньги и риск. Они просто созданы друг для друга… или это лишь фасад, чтобы провернуть изысканную и виртуозную аферу, больше похожую на арт-перформанс?

    Возраст: 18+ (зрителям, достигшим 18 лет. запрещено для детей)
    Рейтинг MPAA: R (лицам до 17 лет обязательно присутствие взрослого)
    Дата мировой премьеры: 21 марта 2019
    Дата премьеры в России: 18 июля 2019

    Продолжительность: 01: 40: 14
    Качество видео: BDRip
    Перевод: Дублированный (iTunes)
    Видео: XviD, 720x304, ~1620 Kbps
    Аудио: AC-3, 6 ch, 384 Kbps
    Общее
    Полное имя : D: NNMИскусство обманаLying.and.Stealing.2019.BDRip.avi
    Формат : AVI
    Формат/Информация : Audio Video Interleave
    Размер файла : 1, 41 Гбайт
    Продолжительность : 1 ч. 40 м.
    Общий поток : 2013 Кбит/сек
    Программа кодирования : VirtualDubMod 1.5.10.3 |www.virtualdub-fr.org|| (build 2550/release)
    Библиотека кодирования : VirtualDubMod build 2550/release
    Видео
    Идентификатор : 0
    Формат : MPEG-4 Visual
    Профиль формата : Advanced Simple@L5
    Настройки формата : BVOP1/Custom Matrix
    Параметр BVOP формата : 1
    Параметр QPel формата : Нет
    Параметр GMC формата : Без точки перехода
    Параметр матрицы формата : Выборочная
    Идентификатор кодека : XVID
    Идентификатор кодека/Подсказка : XviD
    Продолжительность : 1 ч. 40 м.
    Битрейт : 1620 Кбит/сек
    Ширина : 720 пикселей
    Высота : 304 пикселя
    Соотношение сторон : 2, 35: 1
    Частота кадров : 23, 976 (24000/1001) кадра/сек
    Цветовое пространство : YUV
    Субдискретизация насыщенности : 4: 2: 0
    Битовая глубина : 8 бит
    Тип развёртки : Прогрессивная
    Метод сжатия : С потерями
    Бит/(Пиксели*Кадры) : 0.309
    Размер потока : 1, 13 Гбайт (80%)
    Библиотека кодирования : XviD 73
    Аудио
    Идентификатор : 1
    Формат : AC-3
    Формат/Информация : Audio Coding 3
    Коммерческое название : Dolby Digital
    Идентификатор кодека : 2000
    Продолжительность : 1 ч. 40 м.
    Вид битрейта : Постоянный
    Битрейт : 384 Кбит/сек
    Каналы : 6 каналов
    ChannelLayout : L R C LFE Ls Rs
    Частота : 48, 0 КГц
    Частота кадров : 31, 250 кадров/сек (1536 SPF)
    Битовая глубина : 16 бит
    Метод сжатия : С потерями
    Размер потока : 275 Мбайт (19%)
    Выравнивание : Разделение по промежуткам
    Продолжительность промежутка : 42 мс. (1, 00 видеокадр)
    Время предзагрузки промежутка : 500 мс.
    ServiceKind/String : Complete Main

    Скриншоты для ознакомления



    Все одноименные релизы в Клубе Время раздачи: 24/7 (до появления первых 3-5 скачавших)

    Онлайн видео Искусство обмана



    Искусство обмана/Lying and Stealing (2019) BDRip
    Рейтинг →
     (голосов: 1, оценка 4/5, голосовать можно 1 раз )

    Другие торренты по теме:

  • Cheating Craft / Искусство обмана [2016, TV, 1 из 12] WEB-DLRip 720p raw
  • Ираклий Шанидзе | Фотография. Искусство обмана (2018) [PDF]
  • Искусство обмана / Lying and Stealing (2019) WEB-DLRip [H.264 / 720p-LQ] [MVO] [AD]
  • Искусство обмана / Lying and Stealing (2019) WEB-DLRip [H.264] [MVO]
  • Искусство обмана / Lying and Stealing (2019) WEB-DL [H.265 / 1080p-LQ] [10-bit] [MVO]
  • Искусство обмана / Lying and Stealing (2019) WEB-DLRip [H.265 / 720p-LQ] [10-bit] [MVO]
  • Искусство обмана / Lying and Stealing (2019) WEB-DLRip [H.265] [10-bit] [MVO]
  • Искусство обмана / Lying and Stealing (2019) WEB-DL [H.264 / 1080p-LQ] [MVO]


    • Комментарии (0):

      Информация

      Информация

        Посетители, находящиеся в группе Гости, не могут оставлять комментарии в данной новости.

        ↓ Меню




        ↓ Опрос

        Вы добавили сайт в закладки?
        Да
        Нет


        Популярное