.
Авторизация | Регистрация

bitok.xyz

» » Бунтари / Rebelles (2019) BDRip [H.264 / 720p-LQ] [MVO] [AD] торрент скачать бесплатно


    Бунтари / Rebelles (2019) BDRip [H.264 / 720p-LQ] [MVO] [AD] торрент скачать бесплатно

    Дата: 31-10-2019, 05:00 | .torrent скачали: 0

    Бунтари / Rebelles (2019) BDRip [H.264 / 720p-LQ] [MVO] [AD]Производство: Франция/Albertine Productions, Le Pacte, France 3 Cinéma
    Жанр: Комедия
    Режиссер: Аллан Модют

    Актеры
    Сесиль Де Франс, Иоланда Моро, Одри Лами, Симон Абкарян, Самуэль Жуи, Беатрис Аженен, Патрик Ридремон, Том Лекок, Валентин Папудоф, Мишель Масьеро

    Описание

    Молодая женщина, бывшая королева красоты, вынуждена покинуть юг Франции и вернуться в городок своего детства. Теперь она живет с мамой и дружит с двумя женщинами - коллегами с рыбного завода, ведь безденежье заставило ее устроиться именно туда. Но однажды начальник стал распускать руки, и тогда девушка случайно убила его...

    Дата мировой премьеры: 17 января 2019
    Продолжительность: 01: 25: 56
    Качество видео: BDRip
    Перевод: Многоголосый закадровый, любительский (AlphaProject)
    Субтитры: Отсутствуют
    Реклама: Присутствует баннер.
    Видео: AVC/H.264, 1280x536, ~6621 Kbps
    Аудио: AC-3, 2 ch, 448 Kbps
    Общее
    Полное имя : D: NNMБунтариRebelles.2019.BDRip.720p-LQ.mkv
    Формат : Matroska
    Версия формата : Version 2
    Размер файла : 4, 33 Гбайт
    Продолжительность : 1 ч. 25 м.
    Режим общего битрейта : Переменный
    Общий поток : 7213 Кбит/сек
    Программа кодирования : libmatroska 1.4.1
    Библиотека кодирования : SolveigMM Matroska Muxer Version 1.0.1502.31
    Видео
    Идентификатор : 1
    Формат : AVC
    Формат/Информация : Advanced Video Codec
    Профиль формата : High@L4.1
    Настройки формата : CABAC/4 Ref Frames
    Параметр CABAC формата : Да
    Параметр RefFrames формата : 4 кадра
    Идентификатор кодека : V_MPEG4/ISO/AVC
    Продолжительность : 1 ч. 25 м.
    Вид битрейта : Переменный
    Битрейт : 6621 Кбит/сек
    Номинальный битрейт : 7500 Кбит/сек
    Максимальный битрейт : 7500 Кбит/сек
    Ширина : 1280 пикселей
    Высота : 536 пикселей
    Соотношение сторон : 2, 40: 1
    Режим частоты кадров : Постоянный
    Частота кадров : 23, 976 (24000/1001) кадра/сек
    Стандарт вещания : Component
    Цветовое пространство : YUV
    Субдискретизация насыщенности : 4: 2: 0
    Битовая глубина : 8 бит
    Тип развёртки : Прогрессивная
    Бит/(Пиксели*Кадры) : 0.403
    Размер потока : 3, 97 Гбайт (92%)
    Default : Нет
    Forced : Нет
    Цветовой диапазон : Limited
    Основные цвета : BT.709
    Характеристики трансфера : BT.709
    Коэффициенты матрицы : BT.709
    Аудио
    Идентификатор : 2
    Формат : AC-3
    Формат/Информация : Audio Coding 3
    Коммерческое название : Dolby Digital
    Идентификатор кодека : A_AC3
    Продолжительность : 1 ч. 25 м.
    Вид битрейта : Постоянный
    Битрейт : 448 Кбит/сек
    Каналы : 2 канала
    ChannelLayout : L R
    Частота : 48, 0 КГц
    Частота кадров : 31, 250 кадров/сек (1536 SPF)
    Битовая глубина : 16 бит
    Метод сжатия : С потерями
    Размер потока : 275 Мбайт (6%)
    ServiceKind/String : Complete Main
    Default : Нет
    Forced : Нет

    Скриншоты для ознакомления



    Все одноименные релизы в Клубе Время раздачи: 24/7 (до появления первых 3-5 скачавших)

    Онлайн видео Бунтари



    Бунтари/Rebelles (2019) BDRip [H.264/720p-LQ] [MVO] [AD]
    Рейтинг →
     (голосов: 1, оценка 3/5, голосовать можно 1 раз )

    Другие торренты по теме:

  • Бунтари / Rebelles (2019) HDRip [MVO] [AD]


    • Комментарии (0):

      Информация

      Информация

        Посетители, находящиеся в группе Гости, не могут оставлять комментарии в данной новости.

        ↓ Меню




        ↓ Опрос

        Вы добавили сайт в закладки?
        Да
        Нет


        Популярное