.
Авторизация | Регистрация

bitok.xyz

» » Форсаж: Хоббс и Шоу / Fast & Furious Presents: Hobbs & Shaw (2019) BDRip [H.265 / 1080p-LQ] [10-bit] торрент скачать бесплатно


    Форсаж: Хоббс и Шоу / Fast & Furious Presents: Hobbs & Shaw (2019) BDRip [H.265 / 1080p-LQ] [10-bit] торрент скачать бесплатно

    Дата: 31-10-2019, 05:00 | .torrent скачали: 0

    Форсаж: Хоббс и Шоу / Fast & Furious Presents: Hobbs & Shaw (2019) BDRip [H.265 / 1080p-LQ] [10-bit]Производство: США, Великобритания/Chris Morgan Productions, Seven Bucks Productions, Universal Pictures
    Жанр: боевик, приключения
    Режиссер: Дэвид Литч

    Актеры
    Дуэйн Джонсон, Джейсон Стэйтем, Идрис Эльба, Райан Рейнольдс, Ванесса Кирби, Хелен Миррен, Эйса Гонсалес, Эдди Марсан, Элиана Суа, Клифф Кёртис

    Описание

    Люк Хоббс — американский элитный спецагент, он любит удобную спортивную одежду, большие пикапы и здоровое питание. Декард Шоу — британский пижон, бывший сотрудник разведки, предпочитает дорогие костюмы, спортивные авто и пабы. Эти двое терпеть друг друга не могут. Но если кто-то угрожает их семьям, они готовы пойти на всё. Даже на работу в команде.

    Возраст: 12+ (зрителям, достигшим 12 лет)
    Рейтинг MPAA: PG-13 (детям до 13 лет просмотр нежелателен)
    Дата мировой премьеры: 13 июля 2019
    Дата российской премьеры: 1 августа 2019, UPI
    Релиз от: HANNIBAL (HEVC-CLUB)
    Продолжительность: 02: 16: 42
    Качество видео: BDRip
    Перевод: Дублированный (iTunes)
    Субтитры: Русские (форсированные), английские
    Видео: HEVC/H.265, 1920x802, ~5085 Kbps
    Аудио 1: AC3, 6 ch, 384 Kbps - Русский, дублированный
    Аудио 2: AC3, 2 ch, 192 Kbps - Украинский, дублированный (студія LeDoyen)
    Аудио 3: AC3, 6 ch, 448 Kbps - Английский
    Общее
    Уникальный идентификатор : 90683799836218057283865494049787610752 (0x44391086D7C700DC4BB82A95C7FA0680)
    Полное имя : R: Fast Furious Presents Hobbs Shaw (2019) BDRip-HEVC 1080p 10 bit.mkv
    Формат : Matroska
    Версия формата : Version 4/Version 2
    Размер файла : 5, 84 Гбайт
    Продолжительность : 2 ч. 16 м.
    Общий поток : 6111 Кбит/сек
    Название фильма : Fast Furious Presents: Hobbs Shaw 2019 4K from селезень
    Дата кодирования : UTC 2019-10-29 15: 50: 33
    Программа кодирования : mkvmerge v35.0.0 (\'All The Love In The World\') 64-bit
    Библиотека кодирования : libebml v1.3.9 + libmatroska v1.5.2
    Обложка : Yes
    Attachments : cover.jpg
    Видео
    Идентификатор : 1
    Формат : HEVC
    Формат/Информация : High Efficiency Video Coding
    Профиль формата : Main10@L5.1@High
    Идентификатор кодека : V_MPEGH/ISO/HEVC
    Продолжительность : 2 ч. 16 м.
    Битрейт : 5085 Кбит/сек
    Ширина : 1920 пикселей
    Высота : 802 пикселя
    Соотношение сторон : 2, 40: 1
    Режим частоты кадров : Постоянный
    Частота кадров : 23, 976 (24000/1001) кадра/сек
    Цветовое пространство : YUV
    Субдискретизация насыщенности : 4: 2: 0
    Битовая глубина : 10 бит
    Бит/(Пиксели*Кадры) : 0.138
    Размер потока : 4, 85 Гбайт (83%)
    Библиотека кодирования : x265 3.1+11-de920e0a3183: Windowsclang 8.0.064 bit 10bit
    Настройки программы : cpuid=1111039/frame-threads=13/numa-pools=12/wpp/no-pmode/no-pme/no-psnr/no-ssim/log-level=3/input-csp=1/input-res=1920x802/interlace=0/total-frames=0/level-idc=51/high-tier=1/uhd-bd=0/ref=5/allow-non-conformance/no-repeat-t_heads/annexb/no-aud/no-hrd/info/hash=0/no-temporal-layers/open-gop/min-keyint=24/keyint=240/gop-lookahead=0/bframes=8/b-adapt=2/b-pyramid/bframe-bias=0/rc-lookahead=20/lookahead-slices=5/scenecut=40/radl=0/no-splice/no-intra-refresh/ctu=64/min-cu-size=8/rect/amp/max-tu-size=32/tu-inter-depth=4/tu-intra-depth=4/limit-tu=0/rdoq-level=2/dynamic-rd=0.00/no-ssim-rd/signhide/no-tskip/nr-intra=0/nr-inter=0/no-constrained-intra/no-strong-intra-smoothing/max-merge=3/limit-refs=1/no-limit-modes/me=3/subme=7/merange=57/temporal-mvp/no-hme/weightp/weightb/no-analyze-src-pics/deblock=-3: -3/no-sao/no-sao-non-deblock/rd=6/early-skip/rskip/no-fast-intra/no-tskip-fast/no-cu-lossless/b-intra/no-splitrd-skip/rdpenalty=0/psy-rd=2.00/psy-rdoq=1.00/no-rd-refine/no-lossless/cbqpoffs=0/crqpoffs=0/rc=crf/crf=16.5/qcomp=0.60/qpstep=4/stats-write=0/stats-read=0/vbv-maxrate=160000/vbv-bufsize=160000/vbv-init=0.9/crf-max=30.0/crf-min=0.0/ipratio=1.40/pbratio=1.30/aq-mode=1/aq-strength=1.00/cutree/zone-count=0/no-strict-cbr/qg-size=32/no-rc-grain/qpmax=69/qpmin=0/no-const-vbv/sar=1/overscan=0/videoformat=5/range=0/colorprim=1/transfer=1/colormatrix=1/chromaloc=0/display-window=0cll=0, 0/min-luma=0/max-luma=1023/log2-max-poc-lsb=8/vui-timing-info/vui-hrd-info/slices=1/no-opt-qp-pps/no-opt-ref-list-length-pps/no-multi-pass-opt-rps/scenecut-bias=0.05/no-opt-cu-delta-qp/no-aq-motion/no-hdr/no-hdr-opt/no-dhdr10-opt/no-idr-recovery-sei/analysis-reuse-level=5/scale-factor=0/refine-intra=0/refine-inter=0/refine-mv=0/refine-ctu-distortion=0/no-limit-sao/ctu-info=0/no-lowpass-dct/refine-analysis-type=0/copy-pic=1/max-ausize-factor=1.0/no-dynamic-refine/no-single-sei/no-hevc-aq/no-svt/no-field/qp-adaptation-range=1.00
    Язык : English
    Default : Да
    Forced : Нет
    Цветовой диапазон : Limited
    Основные цвета : BT.709
    Характеристики трансфера : BT.709
    Коэффициенты матрицы : BT.709
    Аудио #1
    Идентификатор : 2
    Формат : AC-3
    Формат/Информация : Audio Coding 3
    Идентификатор кодека : A_AC3
    Продолжительность : 2 ч. 16 м.
    Вид битрейта : Постоянный
    Битрейт : 384 Кбит/сек
    Каналы : 6 каналов
    Расположение каналов : Front: L C R, Side: L R, LFE
    Частота : 48, 0 КГц
    Частота кадров : 31, 250 кадров/сек (1536 SPF)
    Битовая глубина : 16 бит
    Метод сжатия : С потерями
    Размер потока : 375 Мбайт (6%)
    Заголовок : iTunes
    Язык : Russian
    ServiceKind/String : Complete Main
    Default : Да
    Forced : Нет
    Аудио #2
    Идентификатор : 3
    Формат : AC-3
    Формат/Информация : Audio Coding 3
    Идентификатор кодека : A_AC3
    Продолжительность : 2 ч. 16 м.
    Вид битрейта : Постоянный
    Битрейт : 192 Кбит/сек
    Каналы : 2 канала
    Расположение каналов : Front: L R
    Частота : 48, 0 КГц
    Частота кадров : 31, 250 кадров/сек (1536 SPF)
    Битовая глубина : 16 бит
    Метод сжатия : С потерями
    Размер потока : 188 Мбайт (3%)
    Заголовок : Ukr Dub, LeDoyen
    Язык : Ukrainian
    ServiceKind/String : Complete Main
    Default : Нет
    Forced : Нет
    Аудио #3
    Идентификатор : 4
    Формат : AC-3
    Формат/Информация : Audio Coding 3
    Идентификатор кодека : A_AC3
    Продолжительность : 2 ч. 16 м.
    Вид битрейта : Постоянный
    Битрейт : 448 Кбит/сек
    Каналы : 6 каналов
    Расположение каналов : Front: L C R, Side: L R, LFE
    Частота : 48, 0 КГц
    Частота кадров : 31, 250 кадров/сек (1536 SPF)
    Битовая глубина : 16 бит
    Метод сжатия : С потерями
    Размер потока : 438 Мбайт (7%)
    Заголовок : Original
    Язык : English
    ServiceKind/String : Complete Main
    Default : Нет
    Forced : Нет
    Текст #1
    Идентификатор : 5
    Формат : UTF-8
    Идентификатор кодека : S_TEXT/UTF8
    Идентификатор кодека/Информация : UTF-8 Plain Text
    Продолжительность : 2 ч. 4 м.
    Битрейт : 1 бит/сек
    ElementCount : 48
    Размер потока : 1, 42 Кбайт (0%)
    Заголовок : Forced
    Язык : Russian
    Default : Да
    Forced : Да
    Текст #2
    Идентификатор : 6
    Формат : UTF-8
    Идентификатор кодека : S_TEXT/UTF8
    Идентификатор кодека/Информация : UTF-8 Plain Text
    Продолжительность : 2 ч. 1 м.
    Битрейт : 61 бит/сек
    ElementCount : 1947
    Размер потока : 54, 9 Кбайт (0%)
    Заголовок : Full
    Язык : English
    Default : Нет
    Forced : Нет
    Меню
    00: 00: 00.000 : : Chapter 01
    00: 04: 58.131 : : Chapter 02
    00: 13: 43.489 : : Chapter 03
    00: 19: 21.452 : : Chapter 04
    00: 26: 45.979 : : Chapter 05
    00: 35: 41.514 : : Chapter 06
    00: 40: 13.244 : : Chapter 07
    00: 46: 22.029 : : Chapter 08
    00: 51: 34.216 : : Chapter 09
    00: 57: 51.802 : : Chapter 10
    01: 01: 53.251 : : Chapter 11
    01: 08: 45.162 : : Chapter 12
    01: 14: 22.833 : : Chapter 13
    01: 19: 48.075 : : Chapter 14
    01: 24: 59.261 : : Chapter 15
    01: 32: 58.198 : : Chapter 16
    01: 38: 48.923 : : Chapter 17
    01: 46: 32.970 : : Chapter 18
    01: 53: 29.594 : : Chapter 19
    02: 01: 14.809 : : Chapter 20


    Онлайн видео Форсаж: Хоббс и Шоу



    Форсаж: Хоббс и Шоу/Fast & Furious Presents: Hobbs & Shaw (2019) BDRip [H.265/1080p-LQ] [10-bit]
    Рейтинг →
     (голосов: 1, оценка 3/5, голосовать можно 1 раз )

    Другие торренты по теме:

  • Форсаж: Хоббс и Шоу / Fast & Furious Presents: Hobbs & Shaw (2019) BDRemux [H.264 / 1080p] [3D / 2D] [ISO]
  • Форсаж: Хоббс и Шоу / Fast & Furious Presents: Hobbs & Shaw (2019) CAMRip [H.264 / 720p-LQ] [AD]
  • Форсаж: Хоббс и Шоу / Fast & Furious Presents: Hobbs & Shaw (2019) CAMRip [AD]
  • Форсаж: Хоббс и Шоу / Fast & Furious Presents: Hobbs & Shaw (2019) WEBRip [H.264 / 1080p] [EN / KOR Sub] [PR]
  • Форсаж: Хоббс и Шоу / Fast & Furious Presents: Hobbs & Shaw (2019) WEBRip [H.264] [UKR, EN / KOR Sub] [Line]
  • Форсаж: Хоббс и Шоу / Fast & Furious Presents: Hobbs & Shaw (2019) WEBRip [UKR / KOR Sub] [Line]
  • Форсаж: Хоббс и Шоу / Fast & Furious Presents: Hobbs & Shaw (2019) WEBRip [H.264 / 1080p-LQ] [UKR, EN / KOR Sub] [Line]
  • Форсаж: Хоббс и Шоу / Fast & Furious Presents: Hobbs & Shaw (2019) WEBRip [H.264 / 1080p-LQ] [Line] [AD]


    • Комментарии (0):

      Информация

      Информация

        Посетители, находящиеся в группе Гости, не могут оставлять комментарии в данной новости.

        ↓ Меню




        ↓ Опрос

        Вы добавили сайт в закладки?
        Да
        Нет


        Популярное