.
Авторизация | Регистрация

bitok.xyz

» » Страшные истории для рассказа в темноте / Scary Stories to Tell in the Dark (2019) BDRip [H.264 / 720p-LQ] торрент скачать бесплатно


    Страшные истории для рассказа в темноте / Scary Stories to Tell in the Dark (2019) BDRip [H.264 / 720p-LQ] торрент скачать бесплатно

    Дата: 31-10-2019, 05:00 | .torrent скачали: 0

    Страшные истории для рассказа в темноте / Scary Stories to Tell in the Dark (2019) BDRip [H.264 / 720p-LQ]Производство: США, Канада, Китай/1212 Entertainment, CBS Films
    Жанр: Ужасы, триллер, экранизация
    Режиссер: Андре Овредал

    Актеры
    Зои Маргарет Коллетти, Майкл Гарза, Гэбриел Раш, Остин Абрамс, Дин Норрис, Джил Беллоуз, Лоррейн Туссен, Остин Зажур, Натали Гэнзхорн, Кэтлин Поллард

    Описание

    1968 год. Над Америкой витает ветер перемен... Но не над маленьким городком Милл-Вэлли, где проживало несколько поколений таинственной семьи Беллоу. В их зловещем особняке на краю города мучительная жизнь девочки Сары, хранящей ужасные тайны, превратилась в книжку страшных историй. Спустя время эти жуткие рассказы воплотились в реальность для нескольких подростков, нашедших книгу. Страшные истории для рассказа в темноте — экранизация популярной трилогии ужасов Элвина Шварца.

    Возраст: 16+ (зрителям, достигшим 16 лет)
    Рейтинг MPAA: PG-13 (детям до 13 лет просмотр нежелателен)
    Дата мировой премьеры: 7 августа 2019
    Дата премьеры в России: 8 августа 2019

    Релиз от: NNMClub
    Продолжительность: 01: 43: 11
    Качество видео: BDRip (batonchik )
    Перевод: Дублированный (iTunes)
    Субтитры: Английский
    Видео: AVC/H.264, 1280x534, ~2500 Kbps
    Аудио: AC3, 6 ch, 384 Kbps | Русский--Information 29.10.2019 20: 40: 43 Standard error stream
    ---Information 29.10.2019 20: 40: 51 y4m info: 1280x534p 1: 1 @ 24000/1001 fps (cfr)
    ---Information 29.10.2019 20: 40: 51 x264 info: using SAR=1/1
    ---Information 29.10.2019 20: 40: 51 x264 info: using cpu capabilities: MMX2 SSE2Fast SSSE3 SSE4.2 AVX
    ---Information 29.10.2019 20: 40: 51 x264 info: profile High, level 4.1, 4: 2: 0, 8-bit
    ---Information 30.10.2019 1: 00: 37 x264 info: frame I: 1356 Avg QP: 15.20 size: 81634
    ---Information 30.10.2019 1: 00: 37 x264 info: frame P: 30938 Avg QP: 16.99 size: 32118
    ---Information 30.10.2019 1: 00: 37 x264 info: frame B: 123011 Avg QP: 18.78 size: 7458

    ---Information 30.10.2019 1: 00: 37 x264 info: consecutive B-frames: 2.3% 2.0% 6.8% 14.3% 13.5% 37.4% 7.5% 2.7% 4.1% 4.5% 5.0%
    General
    Complete name : Страшные истории для рассказа в темноте_Scary Stories to Tell in the Dark.2019.BDRip.720p.LQ.NNMClub.mkv
    Format : Matroska
    Format version : Version 4
    File size : 2.17 GiB
    Duration : 1 h 47 min
    Overall bit rate : 2 883 kb/s
    Movie name : Страшные истории для рассказа в темноте_Scary Stories to Tell in the Dark.2019.BDRip.720p.LQ.NNMClub
    Encoded date : UTC 2019-10-30 03: 01: 17
    Writing application : mkvmerge v36.0.0 (\'Is That Jazz?\') 64-bit
    Writing library : libebml v1.3.9 + libmatroska v1.5.2
    Video
    ID : 1
    Format : AVC
    Format/Info : Advanced Video Codec
    Format profile : High@L4.1
    Format settings : CABAC/9 Ref Frames
    Format settings, CABAC : Yes
    Format settings, Reference frames : 9 frames
    Codec ID : V_MPEG4/ISO/AVC
    Duration : 1 h 47 min
    Bit rate : 2 500 kb/s
    Width : 1 280 pixels
    Height : 534 pixels
    Display aspect ratio : 2.40: 1
    Frame rate mode : Constant
    Frame rate : 23.976 (24000/1001) FPS
    Color space : YUV
    Chroma subsampling : 4: 2: 0
    Bit depth : 8 bits
    Scan type : Progressive
    Bits/(Pixel*Frame) : 0.153
    Stream size : 1.88 GiB (87%)
    Title : Страшные истории для рассказа в темноте_Scary Stories to Tell in the Dark.2019.BDRip.720p.LQ.NNMClub
    Writing library : x264 core 158 r2984 3759fcb
    Encoding settings : cabac=1/ref=9/deblock=1: -3: -3/analyse=0x3: 0x133/me=umh/subme=11/psy=1/psy_rd=1.00: 0.25/mixed_ref=1/me_range=32/chroma_me=1/trellis=2/8x8dct=1/cqm=0/deadzone=6, 6/fast_pskip=0/chroma_qp_offset=-4/threads=12/lookahead_threads=3/sliced_threads=0/nr=0/decimate=0/interlaced=0/bluray_compat=0/constrained_intra=0/bframes=10/b_pyramid=2/b_adapt=2/b_bias=0/direct=1/weightb=1/open_gop=0/weightp=2/keyint=240/keyint_min=23/scenecut=40/intra_refresh=0/rc_lookahead=40/rc=2pass/mbtree=1/bitrate=2500/ratetol=1.0/qcomp=0.60/qpmin=0/qpmax=69/qpstep=4/cplxblur=20.0/qblur=0.5/vbv_maxrate=50000/vbv_bufsize=62500/nal_hrd=none/filler=0/ip_ratio=1.10/aq=3: 0.70
    Language : English
    Default : Yes
    Forced : No
    Audio
    ID : 2
    Format : AC-3
    Format/Info : Audio Coding 3
    Commercial name : Dolby Digital
    Codec ID : A_AC3
    Duration : 1 h 47 min
    Bit rate mode : Constant
    Bit rate : 384 kb/s
    Channel(s) : 6 channels
    Channel layout : L R C LFE Ls Rs
    Sampling rate : 48.0 kHz
    Frame rate : 31.250 FPS (1536 SPF)
    Compression mode : Lossy
    Stream size : 297 MiB (13%)
    Title : DUB, iTunes
    Language : Russian
    Service kind : Complete Main
    Default : Yes
    Forced : No
    Text
    ID : 3
    Format : UTF-8
    Codec ID : S_TEXT/UTF8
    Codec ID/Info : UTF-8 Plain Text
    Duration : 1 h 39 min
    Bit rate : 45 b/s
    Count of elements : 1244
    Stream size : 32.8 KiB (0%)
    Title : Full
    Language : English
    Default : No
    Forced : No
    Menu
    00: 00: 00.000 : en: Chapter 1
    00: 05: 44.385 : en: Chapter 2
    00: 13: 23.052 : en: Chapter 3
    00: 18: 52.130 : en: Chapter 4
    00: 25: 34.741 : en: Chapter 5
    00: 28: 31.167 : en: Chapter 6
    00: 36: 17.300 : en: Chapter 7
    00: 47: 06.281 : en: Chapter 8
    00: 54: 17.170 : en: Chapter 9
    00: 58: 36.304 : en: Chapter 10
    01: 02: 36.377 : en: Chapter 11
    01: 11: 04.676 : en: Chapter 12
    01: 17: 59.424 : en: Chapter 13
    01: 24: 33.902 : en: Chapter 14
    01: 29: 53.179 : en: Chapter 15
    01: 38: 30.279 : en: Chapter 16

    Скриншоты для ознакомления



    Все одноименные релизы в Клубе Время раздачи: 24/7 (до появления первых 3-5 скачавших)

    Онлайн видео Страшные истории для рассказа в темноте



    Страшные истории для рассказа в темноте/Scary Stories to Tell in the Dark (2019) BDRip [H.264/720p-LQ]
    Рейтинг →
     (голосов: 1, оценка 3/5, голосовать можно 1 раз )

    Другие торренты по теме:

  • Страшные истории v3.4.2 Mod [Ru]
  • Страшные истории для рассказа в темноте / Scary Stories to Tell in the Dark (2019) WEB-DL [H.264 / 1080p-LQ]
  • Страшные истории для рассказа в темноте / Scary Stories to Tell in the Dark (2019) WEB-DLRip
  • Страшные истории для рассказа в темноте / Scary Stories to Tell in the Dark (2019) WEB-DLRip [H.264]
  • Элвин Шварц | Страшные истории для рассказа в темноте [сборник] (2019) [FB2]
  • Страшные истории для рассказа в темноте / Scary Stories to Tell in the Dark (2019) WEB-DLRip [H.265] [10-bit] [PR]
  • Страшные истории для рассказа в темноте / Scary Stories to Tell in the Dark (2019) HDRip
  • Страшные истории для рассказа в темноте / Scary Stories to Tell in the Dark (2019) BDRip [H.264 / 1080p] [PR]


    • Комментарии (0):

      Информация

      Информация

        Посетители, находящиеся в группе Гости, не могут оставлять комментарии в данной новости.

        ↓ Меню




        ↓ Опрос

        Вы добавили сайт в закладки?
        Да
        Нет


        Популярное