.
Авторизация | Регистрация

bitok.xyz

» » Повстанцы / The Rebels (2019) WEBRip [MVO] [AD] торрент скачать бесплатно


    Повстанцы / The Rebels (2019) WEBRip [MVO] [AD] торрент скачать бесплатно

    Дата: 31-10-2019, 05:00 | .torrent скачали: 0

    Повстанцы / The Rebels (2019) WEBRip [MVO] [AD]Производство: Великобритания/Rebel Indie Films
    Жанр: Приключения
    Режиссер: Emmet Cummins

    Актеры
    Мия МакКенна-Брюс, Джулиан Льюис Джонс, Ифан Хью Дэфидд, Колин Мурта, Гийом Риво, Том Лич, Ричард Мэйсон, Джеймс Грум, Гидеон Риз, Саймон Нехан

    Описание

    I век нашей эры. Британия оккупирована Римской империей и народное недовольство нарастает. Четыре валлийских подростка случайно убивают римского солдата и сбегают в леса. В отместку римляне вырезают их поселение, что запускает цепь событий, которая приводит к полномасштабному восстанию против захватчиков.

    Дата мировой премьеры: 28 октявря 2019
    Продолжительность: 01: 25: 15
    Качество видео: WEBRip
    Перевод: Многоголосый закадровый, любительский (MUZOBOZ)
    Субтитры: Отсутствуют
    Реклама: Присутствует баннер.
    Видео: XviD, 720x304, ~2245 Kbps
    Аудио: AC-3, 2 ch, 192 Kbps
    Общее
    Полное имя : D: NNMПовстанцыThe.Rebels.2019.WEB-DLRip.avi
    Формат : AVI
    Формат/Информация : Audio Video Interleave
    Размер файла : 1, 46 Гбайт
    Продолжительность : 1 ч. 25 м.
    Общий поток : 2446 Кбит/сек
    Программа кодирования : VirtualDubMod 1.5.10.3 |www.virtualdub-fr.org|| (build 2550/release)
    Библиотека кодирования : VirtualDubMod build 2550/release
    Видео
    Идентификатор : 0
    Формат : MPEG-4 Visual
    Профиль формата : Advanced Simple@L5
    Настройки формата : BVOP1/Custom Matrix
    Параметр BVOP формата : 1
    Параметр QPel формата : Нет
    Параметр GMC формата : Без точки перехода
    Параметр матрицы формата : Выборочная
    Идентификатор кодека : XVID
    Идентификатор кодека/Подсказка : XviD
    Продолжительность : 1 ч. 25 м.
    Битрейт : 2245 Кбит/сек
    Ширина : 720 пикселей
    Высота : 304 пикселя
    Соотношение сторон : 2, 35: 1
    Частота кадров : 23, 976 (24000/1001) кадра/сек
    Цветовое пространство : YUV
    Субдискретизация насыщенности : 4: 2: 0
    Битовая глубина : 8 бит
    Тип развёртки : Прогрессивная
    Метод сжатия : С потерями
    Бит/(Пиксели*Кадры) : 0.428
    Размер потока : 1, 34 Гбайт (92%)
    Библиотека кодирования : XviD 1.2.1 (UTC 2008-12-04)
    Аудио
    Идентификатор : 1
    Формат : AC-3
    Формат/Информация : Audio Coding 3
    Коммерческое название : Dolby Digital
    Идентификатор кодека : 2000
    Продолжительность : 1 ч. 25 м.
    Вид битрейта : Постоянный
    Битрейт : 192 Кбит/сек
    Каналы : 2 канала
    ChannelLayout : L R
    Частота : 48, 0 КГц
    Частота кадров : 31, 250 кадров/сек (1536 SPF)
    Битовая глубина : 16 бит
    Метод сжатия : С потерями
    Размер потока : 117 Мбайт (8%)
    Выравнивание : Разделение по промежуткам
    Продолжительность промежутка : 42 мс. (1, 00 видеокадр)
    Время предзагрузки промежутка : 500 мс.
    ServiceKind/String : Complete Main

    Скриншоты для ознакомления



    Все одноименные релизы в Клубе Время раздачи: 24/7 (до появления первых 3-5 скачавших)

    Онлайн видео Повстанцы



    Повстанцы/The Rebels (2019) WEBRip [MVO] [AD]
    Рейтинг →
     (голосов: 1, оценка 4/5, голосовать можно 1 раз )

    Другие торренты по теме:

  • Звёздные войны: Повстанцы / Star Wars: Rebels (2014) WEB-DLRip (Сезон 1, Серий 3 из 16) (LostFilm)
  • Звёздные войны: Повстанцы / Star Wars: Rebels (2014) WEB-DLRip [1080p] (Сезон 1, серий 8 из 16) (LostFilm) скачать через торрент бесплатно
  • Звёздные войны: Повстанцы / Star Wars: Rebels (2014) WEB-DLRip (Сезон 1, серий 7 из 16) (Невафильм) (обновляемая)
  • Звездные войны: Повстанцы / Star Wars: Rebels (2015) WEB-DLRip (Сезон 2, Серии 1-5 из 16) (LE-Production) [Обновляемая] скачать через торрент бесплатно
  • Звездные войны: Повстанцы / Star Wars: Rebels (2015) HDTVRip (Сезон 2, Серии 1-2 из 16) (LostFilm) [обновляемая] скачать через торрент бесплатно
  • Звёздные войны: Повстанцы / Star Wars Rebels (2015) WEB-DL [H.264 / 1080p-LQ] (Сезон 2, серии 21 из 21) [UKR, EN]
  • Звёздные войны: Повстанцы / Star Wars Rebels (2016) WEB-DLRip [H.264 / 1080p-LQ] (Сезон 3, серии 1-2 из 7) LostFilm (Обновляемая)
  • Звёздные войны: Повстанцы / Star Wars Rebels (2016) WEB-DLRip (Сезон 3, серии 1-12 из 22) LostFilm (Обновляемая)


    • Комментарии (0):

      Информация

      Информация

        Посетители, находящиеся в группе Гости, не могут оставлять комментарии в данной новости.

        ↓ Меню




        ↓ Опрос

        Вы добавили сайт в закладки?
        Да
        Нет


        Популярное