.
Авторизация | Регистрация

bitok.xyz

» » Слон сидит спокойно / An elephant sitting still / Da xiang xi di er zuo (2018) BDRemux [H.264 / 1080p] [DVO] торрент скачать бесплатно


    Слон сидит спокойно / An elephant sitting still / Da xiang xi di er zuo (2018) BDRemux [H.264 / 1080p] [DVO] торрент скачать бесплатно

    Дата: 31-10-2019, 05:00 | .torrent скачали: 2

    Слон сидит спокойно / An elephant sitting still / Da xiang xi di er zuo (2018) BDRemux [H.264 / 1080p] [DVO]Производство: Китай, Dongchun Films
    Жанр: Драма
    Режиссер: Ху Бо

    Актеры
    Чжан Юй, Пэн Юйчан, Ван Юйвэнь, Ли Цунси, Дун Сянжун, Ван Нин, Чжаоянь Гочжан, Чжу Яньманьцзы, Лин Чжэнхуэй, Ван Чаобэй

    Описание

    Из города, в одном из депрессивных районов которого находится школа Бу и Лина, отправляются поезда и автобусы в Маньчжурию. Там живёт слон. Что бы ни происходило вокруг, он всегда сидит неподвижно. Бу, случайно ставшему причиной смерти Шуая, державшего в страхе всю школу, нужно во что бы то ни стало попасть туда. Бунтарь без причины, мечтатель поневоле, он бежит от мести старшего брата Шуая. И в бегах ему нет ни помощников, ни защитников. Даже бабушка, которая всегда выручала его в трудные моменты, умерла.

    Возраст: 18+ (зрителям, достигшим 18 лет. запрещено для детей)
    Релиз от: mike7025
    Продолжительность: 03: 54: 03
    Качество видео: BDRemux
    Перевод: Двухголосый любительский (LakeFilms)
    Субтитры: Русские, украинские, английские, китайские
    Видео: AVC/H.264, 1920x1080, ~22.0 Mbps
    Аудио 1: AC3, 2 ch, 192 Kbps - Русский (DVO, LakeFilms)
    Аудио 2: AC3, 6 ch, 448 Kbps - Китайский
    General
    Unique ID : 90322042843290558006748184519743000579 (0x43F36487A909E4A95A1307BF54D25003)
    Complete name : G: An.Elephant.Sitting.Still.2018.REMUX.mkv
    Format : Matroska
    Format version : Version 4/Version 2
    File size : 37.0 GiB
    Duration : 3 h 54 min
    Overall bit rate mode : Variable
    Overall bit rate : 22.6 Mb/s
    Encoded date : UTC 2019-10-30 04: 18: 14
    Writing application : mkvmerge v20.0.0 (\'I Am The Sun\') 64-bit
    Writing library : libebml v1.3.5 + libmatroska v1.4.8
    Video
    ID : 1
    Format : AVC
    Format/Info : Advanced Video Codec
    Format profile : High@L4.1
    Format settings : CABAC/4 Ref Frames
    Format settings, CABAC : Yes
    Format settings, RefFrames : 4 frames
    Format settings, GOP : M=3, N=24
    Codec ID : V_MPEG4/ISO/AVC
    Duration : 3 h 54 min
    Bit rate mode : Variable
    Bit rate : 22.0 Mb/s
    Maximum bit rate : 35.0 Mb/s
    Width : 1 920 pixels
    Height : 1 080 pixels
    Display aspect ratio : 16: 9
    Frame rate mode : Constant
    Frame rate : 24.000 FPS
    Standard : NTSC
    Color space : YUV
    Chroma subsampling : 4: 2: 0
    Bit depth : 8 bits
    Scan type : Progressive
    Bits/(Pixel*Frame) : 0.442
    Stream size : 36.0 GiB (97%)
    Language : English
    Default : Yes
    Forced : No
    Color range : Limited
    Color primaries : BT.709
    Transfer characteristics : BT.709
    Matrix coefficients : BT.709
    Audio #1
    ID : 2
    Format : AC-3
    Format/Info : Audio Coding 3
    Codec ID : A_AC3
    Duration : 3 h 54 min
    Bit rate mode : Constant
    Bit rate : 192 kb/s
    Channel(s) : 2 channels
    Channel positions : Front: L R
    Sampling rate : 48.0 kHz
    Frame rate : 31.250 FPS (1536 SPF)
    Bit depth : 16 bits
    Compression mode : Lossy
    Stream size : 321 MiB (1%)
    Title : DVO LakeFilms
    Language : Russian
    Service kind : Complete Main
    Default : Yes
    Forced : No
    Audio #2
    ID : 3
    Format : AC-3
    Format/Info : Audio Coding 3
    Codec ID : A_AC3
    Duration : 3 h 54 min
    Bit rate mode : Constant
    Bit rate : 448 kb/s
    Channel(s) : 6 channels
    Channel positions : Front: L C R, Side: L R, LFE
    Sampling rate : 48.0 kHz
    Frame rate : 31.250 FPS (1536 SPF)
    Bit depth : 16 bits
    Compression mode : Lossy
    Stream size : 750 MiB (2%)
    Language : Chinese
    Service kind : Complete Main
    Default : No
    Forced : No
    Text #1
    ID : 4
    Format : UTF-8
    Codec ID : S_TEXT/UTF8
    Codec ID/Info : UTF-8 Plain Text
    Duration : 3 h 41 min
    Bit rate : 33 b/s
    Count of elements : 1315
    Stream size : 54.5 KiB (0%)
    Language : Russian
    Default : No
    Forced : No
    Text #2
    ID : 5
    Format : UTF-8
    Codec ID : S_TEXT/UTF8
    Codec ID/Info : UTF-8 Plain Text
    Duration : 3 h 49 min
    Bit rate : 30 b/s
    Count of elements : 1312
    Stream size : 50.6 KiB (0%)
    Language : Ukrainian
    Default : No
    Forced : No
    Text #3
    ID : 6
    Format : UTF-8
    Codec ID : S_TEXT/UTF8
    Codec ID/Info : UTF-8 Plain Text
    Duration : 3 h 41 min
    Bit rate : 20 b/s
    Count of elements : 1304
    Stream size : 32.5 KiB (0%)
    Language : English
    Default : No
    Forced : No
    Text #4
    ID : 7
    Format : UTF-8
    Codec ID : S_TEXT/UTF8
    Codec ID/Info : UTF-8 Plain Text
    Duration : 3 h 41 min
    Bit rate : 18 b/s
    Count of elements : 1385
    Stream size : 29.5 KiB (0%)
    Title : simpl
    Language : Chinese
    Default : No
    Forced : No
    Text #5
    ID : 8
    Format : PGS
    Muxing mode : zlib
    Codec ID : S_HDMV/PGS
    Codec ID/Info : Picture based subtitle format used on BDs/HD-DVDs
    Duration : 3 h 41 min
    Bit rate : 18.9 kb/s
    Count of elements : 2502
    Stream size : 29.8 MiB (0%)
    Title : trad
    Language : Chinese
    Default : No
    Forced : No
    Menu
    00: 00: 00.000 : en: Chapter 01
    00: 22: 24.083 : en: Chapter 02
    00: 44: 09.916 : en: Chapter 03
    01: 06: 57.666 : en: Chapter 04
    01: 34: 19.916 : en: Chapter 05
    01: 54: 58.916 : en: Chapter 06
    02: 20: 45.791 : en: Chapter 07
    02: 48: 13.125 : en: Chapter 08
    03: 08: 50.583 : en: Chapter 09
    03: 34: 43.000 : en: Chapter 10

    Скриншоты для ознакомления




    Все одноименные релизы в Клубе
    Время раздачи: 24/7 (до появления первых 3-5 скачавших)

    Онлайн видео Слон сидит спокойно



    Слон сидит спокойно/An elephant sitting still/Da xiang xi di er zuo (2018) BDRemux [H.264/1080p] [DVO]
    Рейтинг →
     (голосов: 1, оценка 3/5, голосовать можно 1 раз )

    Другие торренты по теме:

  • Слон сидит спокойно / An elephant sitting still / Da xiang xi di er zuo (2018) WEB-DLRip [H.264 / 1080p-LQ] [CH / RU, EN Sub] [PR]


    • Комментарии (0):

      Информация

      Информация

        Посетители, находящиеся в группе Гости, не могут оставлять комментарии в данной новости.

        ↓ Меню




        ↓ Опрос

        Вы добавили сайт в закладки?
        Да
        Нет


        Популярное