.
Авторизация | Регистрация

bitok.xyz

» » Убежище / Freistatt (2015) BDRemux [H.264 / 1080i] [DVO] торрент скачать бесплатно


    Убежище / Freistatt (2015) BDRemux [H.264 / 1080i] [DVO] торрент скачать бесплатно

    Дата: 31-10-2019, 05:00 | .torrent скачали: 1

    Убежище / Freistatt (2015) BDRemux [H.264 / 1080i] [DVO]Производство: Германия, Zum Goldenen Lamm Filmproduktion, Südwestrundfunk (SWR), Westdeutscher Rundfunk (WDR)
    Жанр: Драма
    Режиссер: Марк Браммунд

    Актеры
    Луис Хофманн, Александер Хельд, Штефан Гросман, Макс Римельт, Катарина Лоренц, Уве Бом, Лэнгстон Уйбель, Энно Требс, Оле Йоенссон, Анна Баллард

    Описание

    Лето 1968: студенческие волнения, протесты против войны во Вьетнаме, мини-юбки, джинсы-клёш, сексуальная революция. Пока Германия вступает в новую эру свободы, 14-летнего Вольфганга — с подачи ревнивого отчима — отправляют в исправительное учреждение под названием Фрайштатт. Как оказалось, в этом заведении для трудных подростков царит жестокость и насилие — как физическое, так и психологическое. Побег кажется невозможным.

    Релиз от: mike7025
    Продолжительность: 01: 44: 03
    Качество видео: BDRemux
    Перевод: Двухголосый любительский (ViruseProject)
    Субтитры: Русские, английские, немецкие, французские, китайские
    Видео: AVC/H.264, 1920x1080, ~18.0 Mbps
    Аудио 1: AC3, 2 ch, 384 Kbps - Русский (DVO, ViruseProject)
    Аудио 2: AC3, 6 ch, 448 Kbps - Немецкий
    General
    Unique ID : 35946055177642720327123043598657504546 (0x1B0AF55A06636FFB9FB61CFF2299C522)
    Complete name : G: Freistatt.2015.REMUX.mkv
    Format : Matroska
    Format version : Version 4/Version 2
    File size : 13.7 GiB
    Duration : 1 h 44 min
    Overall bit rate mode : Variable
    Overall bit rate : 18.8 Mb/s
    Encoded date : UTC 2019-10-30 07: 31: 45
    Writing application : mkvmerge v20.0.0 (\'I Am The Sun\') 64-bit
    Writing library : libebml v1.3.5 + libmatroska v1.4.8
    Video
    ID : 1
    Format : AVC
    Format/Info : Advanced Video Codec
    Format profile : High@L4.1
    Format settings : CABAC/3 Ref Frames
    Format settings, CABAC : Yes
    Format settings, RefFrames : 3 frames
    Format settings, GOP : M=3, N=12
    Codec ID : V_MPEG4/ISO/AVC
    Duration : 1 h 44 min
    Bit rate mode : Variable
    Bit rate : 18.0 Mb/s
    Maximum bit rate : 35.0 Mb/s
    Width : 1 920 pixels
    Height : 1 080 pixels
    Display aspect ratio : 16: 9
    Frame rate mode : Constant
    Frame rate : 25.000 FPS
    Standard : NTSC
    Color space : YUV
    Chroma subsampling : 4: 2: 0
    Bit depth : 8 bits
    Scan type : MBAFF
    Bits/(Pixel*Frame) : 0.347
    Stream size : 13.1 GiB (95%)
    Language : English
    Default : Yes
    Forced : No
    Color range : Limited
    Color primaries : BT.709
    Transfer characteristics : BT.709
    Matrix coefficients : BT.709
    Audio #1
    ID : 2
    Format : AC-3
    Format/Info : Audio Coding 3
    Codec ID : A_AC3
    Duration : 1 h 44 min
    Bit rate mode : Constant
    Bit rate : 384 kb/s
    Channel(s) : 2 channels
    Channel positions : Front: L R
    Sampling rate : 48.0 kHz
    Frame rate : 31.250 FPS (1536 SPF)
    Bit depth : 16 bits
    Compression mode : Lossy
    Stream size : 286 MiB (2%)
    Title : DVO ViruseProject
    Language : Russian
    Service kind : Complete Main
    Default : Yes
    Forced : No
    Audio #2
    ID : 3
    Format : AC-3
    Format/Info : Audio Coding 3
    Codec ID : A_AC3
    Duration : 1 h 44 min
    Bit rate mode : Constant
    Bit rate : 448 kb/s
    Channel(s) : 6 channels
    Channel positions : Front: L C R, Side: L R, LFE
    Sampling rate : 48.0 kHz
    Frame rate : 31.250 FPS (1536 SPF)
    Bit depth : 16 bits
    Compression mode : Lossy
    Stream size : 333 MiB (2%)
    Language : German
    Service kind : Complete Main
    Default : No
    Forced : No
    Text #1
    ID : 4
    Format : UTF-8
    Codec ID : S_TEXT/UTF8
    Codec ID/Info : UTF-8 Plain Text
    Duration : 1 h 43 min
    Bit rate : 44 b/s
    Count of elements : 753
    Stream size : 33.7 KiB (0%)
    Language : Russian
    Default : No
    Forced : No
    Text #2
    ID : 5
    Format : UTF-8
    Codec ID : S_TEXT/UTF8
    Codec ID/Info : UTF-8 Plain Text
    Duration : 1 h 43 min
    Bit rate : 26 b/s
    Count of elements : 729
    Stream size : 19.9 KiB (0%)
    Language : English
    Default : No
    Forced : No
    Text #3
    ID : 6
    Format : UTF-8
    Codec ID : S_TEXT/UTF8
    Codec ID/Info : UTF-8 Plain Text
    Duration : 1 h 37 min
    Bit rate : 35 b/s
    Count of elements : 932
    Stream size : 25.0 KiB (0%)
    Language : German
    Default : No
    Forced : No
    Text #4
    ID : 7
    Format : PGS
    Muxing mode : zlib
    Codec ID : S_HDMV/PGS
    Codec ID/Info : Picture based subtitle format used on BDs/HD-DVDs
    Duration : 1 h 43 min
    Bit rate : 13.1 kb/s
    Count of elements : 1464
    Stream size : 9.73 MiB (0%)
    Language : French
    Default : No
    Forced : No
    Text #5
    ID : 8
    Format : PGS
    Muxing mode : zlib
    Codec ID : S_HDMV/PGS
    Codec ID/Info : Picture based subtitle format used on BDs/HD-DVDs
    Duration : 1 h 38 min
    Bit rate : 40.9 kb/s
    Count of elements : 1697
    Stream size : 28.8 MiB (0%)
    Language : Chinese
    Default : No
    Forced : No
    Text #6
    ID : 9
    Format : PGS
    Muxing mode : zlib
    Codec ID : S_HDMV/PGS
    Codec ID/Info : Picture based subtitle format used on BDs/HD-DVDs
    Duration : 1 h 38 min
    Bit rate : 16.0 kb/s
    Count of elements : 1657
    Stream size : 11.2 MiB (0%)
    Language : Chinese
    Default : No
    Forced : No
    Menu
    00: 00: 00.000 : en: Chapter 1
    00: 04: 56.040 : en: Chapter 2
    00: 08: 26.760 : en: Chapter 3
    00: 12: 00.760 : en: Chapter 4
    00: 18: 06.600 : en: Chapter 5
    00: 24: 26.600 : en: Chapter 6
    00: 27: 28.240 : en: Chapter 7
    00: 34: 29.480 : en: Chapter 8
    00: 38: 35.320 : en: Chapter 9
    00: 42: 02.600 : en: Chapter 10
    00: 47: 17.520 : en: Chapter 11
    00: 52: 31.720 : en: Chapter 12
    00: 54: 23.440 : en: Chapter 13
    01: 01: 22.480 : en: Chapter 14
    01: 09: 59.160 : en: Chapter 15
    01: 14: 46.320 : en: Chapter 16
    01: 18: 57.480 : en: Chapter 17
    01: 27: 14.880 : en: Chapter 18
    01: 31: 54.000 : en: Chapter 19
    01: 37: 46.800 : en: Chapter 20

    Скриншоты для ознакомления




    Все одноименные релизы в Клубе
    Время раздачи: 24/7 (до появления первых 3-5 скачавших)

    Онлайн видео Убежище



    Убежище/Freistatt (2015) BDRemux [H.264/1080i] [DVO]
    Рейтинг →
     (голосов: 1, оценка 4/5, голосовать можно 1 раз )

    Другие торренты по теме:

  • Убежище / The Hideout (2014) HDRip
  • Убежище / Hideaway (1995) DVDRip [H.264] скачать через торрент бесплатно
  • Убежище / Hideaway (1995) WEB-DLRip [H.264 / 720p-LQ] скачать через торрент бесплатно
  • Убежище / Sanctuary (2008–2011) DVDRip, WEB-DLRip (Сезон 1-4, серии 1-59 из 59) (SyFy Россия) скачать через торрент бесплатно
  • Корри тен Боом | Убежище (2005) [PDF]
  • Убежище | Shelter [2016, Музыкальный клип] BDrip 1080p raw
  • Убежище / Safe House (2015) WEB-DLRip [VO] (сезон 1, серии 1-4 из 4) Levelin
  • Убежище / Safe House (2017) HDTVRip [MVO] (сезон 2, серии 1-4 из 4) Sunshine Studio


    • Комментарии (0):

      Информация

      Информация

        Посетители, находящиеся в группе Гости, не могут оставлять комментарии в данной новости.

        ↓ Меню




        ↓ Опрос

        Вы добавили сайт в закладки?
        Да
        Нет


        Популярное