.
Авторизация | Регистрация

bitok.xyz

» » Логово белого червя / The Lair of the White Worm (1988) BDRip [H.264 / 720p] торрент скачать бесплатно


    Логово белого червя / The Lair of the White Worm (1988) BDRip [H.264 / 720p] торрент скачать бесплатно

    Дата: 31-10-2019, 05:00 | .torrent скачали: 0

    Логово белого червя / The Lair of the White Worm (1988) BDRip [H.264 / 720p]Производство: Великобритания/White Lair
    Жанр: ужасы, мистика
    Режиссер: Кен Рассел

    Актеры
    Аманда Донохью, Хью Грант, Кэтрин Оксенберг, Питер Капальди, Сэмми Дэвис, Стрэтфорд Джонс, Пол Брук, Имоджен Клер, Крис Питт, Джина МакКи

    Описание

    В Англии археолог Ангус, обнаруживает в ходе раскопок загадочный череп. Когда он вместе с Евой и Мэри отправляется на праздник в замок Лорда Джеймса, чувственная и змееподобная Леди Сильвия похищает череп и относит его в тайник своего готического замка, где предается акту эротического поклонения языческому богу — Белому Червю.
    Леди Сильвия — непревзойденная жрица зла, вампирша, виртуозно заманивающая невинных жертв на свой кровавый алтарь. Ее кошачьи повадки, сексуальные уловки, готовность и способность осуществить дичайшие мечты — все эти чары направлены на Еву, поскольку Червь жаждет сладкой девственной плоти, а Ева — самая доступная жертва.

    Возраст: 16+ (зрителям, достигшим 16 лет)
    Рейтинг MPAA: R (лицам до 17 лет обязательно присутствие взрослого)
    Релиз от: k.e.n MegaPeer
    Продолжительность: 01: 33: 51
    Качество видео: BDRip 720p
    Перевод: Профессиональный многоголосый, авторский
    Субтитры: русские, английские
    Видео: AVC, 1280x720 (16: 9), 24 fps, 5515 kbps
    Аудио #1: AC3, 48 kHz, 2 ch, 192 kbps - Русский, MVO
    Аудио #2: AC3, 48 kHz, 2 ch, 192 kbps - Русский, AVO А.Гаврилов
    Аудио #3: AC3, 48 kHz, 2 ch, 192 kbps - Русский, AVO П.Карцев
    Аудио #4: AC3, 48 kHz, 2 ch, 192 kbps - Русский, AVO А.Кашкин
    Аудио #5: AC3, 48 kHz, 6 ch, 384 kbps - Английский, Original
    Complete name : D: КИНО НА ДИСКФИЛЬМЫ 720pЛогово белого червя.1988 (Х.Грант).k.e.n MegaPeer.mkv
    Format : Matroska
    Format version : Version 2
    File size : 4.37 GiB
    Duration : 1 h 33 min
    Overall bit rate : 6 669 kb/s
    Encoded date : UTC 2019-10-12 04: 42: 32
    Writing application : mkvmerge v5.3.0 (\'I could have danced\') built on Feb 9 2012 10: 38: 07
    Writing library : libebml v1.2.3 + libmatroska v1.3.0
    Cover : Yes
    Attachments : cover (5).jpg
    Video
    ID : 1
    Format : AVC
    Format/Info : Advanced Video Codec
    Format profile : High@L4.1
    Format settings : CABAC/9 Ref Frames
    Format settings, CABAC : Yes
    Format settings, ReFrames : 9 frames
    Codec ID : V_MPEG4/ISO/AVC
    Duration : 1 h 33 min
    Bit rate : 5 515 kb/s
    Width : 1 280 pixels
    Height : 720 pixels
    Display aspect ratio : 16: 9
    Frame rate mode : Constant
    Frame rate : 24.000 FPS
    Color space : YUV
    Chroma subsampling : 4: 2: 0
    Bit depth : 8 bits
    Scan type : Progressive
    Bits/(Pixel*Frame) : 0.249
    Stream size : 3.53 GiB (81%)
    Writing library : x264 core 157 r2945 72db437
    Encoding settings : cabac=1/ref=9/deblock=1: -3: -3/analyse=0x3: 0x133/me=umh/subme=11/psy=1/psy_rd=1.00: 0.00/mixed_ref=1/me_range=32/chroma_me=1/trellis=2/8x8dct=1/cqm=0/deadzone=21, 11/fast_pskip=0/chroma_qp_offset=-2/threads=12/lookahead_threads=3/sliced_threads=0/nr=0/decimate=0/interlaced=0/bluray_compat=0/constrained_intra=0/bframes=10/b_pyramid=2/b_adapt=2/b_bias=0/direct=3/weightb=1/open_gop=0/weightp=2/keyint=240/keyint_min=24/scenecut=40/intra_refresh=0/rc=2pass/mbtree=0/bitrate=5515/ratetol=1.0/qcomp=0.70/qpmin=0/qpmax=69/qpstep=4/cplxblur=20.0/qblur=0.5/ip_ratio=1.30/pb_ratio=1.30/aq=3: 0.70
    Language : English
    Default : Yes
    Forced : No
    Color range : Limited
    Color primaries : BT.709
    Transfer characteristics : BT.709
    Matrix coefficients : BT.709
    Audio #1
    ID : 2
    Format : AC-3
    Format/Info : Audio Coding 3
    Commercial name : Dolby Digital
    Codec ID : A_AC3
    Duration : 1 h 33 min
    Bit rate mode : Constant
    Bit rate : 192 kb/s
    Channel(s) : 2 channels
    Channel layout : L R
    Sampling rate : 48.0 kHz
    Frame rate : 31.250 FPS (1536 SPF)
    Bit depth : 16 bits
    Compression mode : Lossy
    Stream size : 129 MiB (3%)
    Title : MVO
    Language : Russian
    Service kind : Complete Main
    Default : Yes
    Forced : No
    Audio #2
    ID : 3
    Format : AC-3
    Format/Info : Audio Coding 3
    Commercial name : Dolby Digital
    Codec ID : A_AC3
    Duration : 1 h 33 min
    Bit rate mode : Constant
    Bit rate : 192 kb/s
    Channel(s) : 2 channels
    Channel layout : L R
    Sampling rate : 48.0 kHz
    Frame rate : 31.250 FPS (1536 SPF)
    Bit depth : 16 bits
    Compression mode : Lossy
    Stream size : 129 MiB (3%)
    Title : AVO А.Гаврилов
    Language : Russian
    Service kind : Complete Main
    Default : No
    Forced : No
    Audio #3
    ID : 4
    Format : AC-3
    Format/Info : Audio Coding 3
    Commercial name : Dolby Digital
    Codec ID : A_AC3
    Duration : 1 h 33 min
    Bit rate mode : Constant
    Bit rate : 192 kb/s
    Channel(s) : 2 channels
    Channel layout : L R
    Sampling rate : 48.0 kHz
    Frame rate : 31.250 FPS (1536 SPF)
    Bit depth : 16 bits
    Compression mode : Lossy
    Stream size : 129 MiB (3%)
    Title : AVO П.Карцев
    Language : Russian
    Service kind : Complete Main
    Default : No
    Forced : No
    Audio #4
    ID : 5
    Format : AC-3
    Format/Info : Audio Coding 3
    Commercial name : Dolby Digital
    Codec ID : A_AC3
    Duration : 1 h 33 min
    Bit rate mode : Constant
    Bit rate : 192 kb/s
    Channel(s) : 2 channels
    Channel layout : L R
    Sampling rate : 48.0 kHz
    Frame rate : 31.250 FPS (1536 SPF)
    Bit depth : 16 bits
    Compression mode : Lossy
    Stream size : 129 MiB (3%)
    Title : AVO А.Кашкин (Первомайский)
    Language : Russian
    Service kind : Complete Main
    Default : No
    Forced : No
    Audio #5
    ID : 6
    Format : AC-3
    Format/Info : Audio Coding 3
    Commercial name : Dolby Digital
    Codec ID : A_AC3
    Duration : 1 h 33 min
    Bit rate mode : Constant
    Bit rate : 384 kb/s
    Channel(s) : 6 channels
    Channel layout : L R C LFE Ls Rs
    Sampling rate : 48.0 kHz
    Frame rate : 31.250 FPS (1536 SPF)
    Bit depth : 16 bits
    Compression mode : Lossy
    Stream size : 258 MiB (6%)
    Title : Original
    Language : English
    Service kind : Complete Main
    Default : No
    Forced : No
    Text #1
    ID : 7
    Format : UTF-8
    Codec ID : S_TEXT/UTF8
    Codec ID/Info : UTF-8 Plain Text
    Title : full
    Language : Russian
    Default : No
    Forced : No
    Text #2
    ID : 8
    Format : UTF-8
    Codec ID : S_TEXT/UTF8
    Codec ID/Info : UTF-8 Plain Text
    Title : SDH
    Language : English
    Default : No
    Forced : No
    Menu
    00: 00: 00.000 : en: 00: 00: 00.000
    00: 07: 49.274 : en: 00: 07: 49.274
    00: 15: 38.548 : en: 00: 15: 38.548
    00: 23: 27.822 : en: 00: 23: 27.822
    00: 31: 17.096 : en: 00: 31: 17.096
    00: 39: 06.371 : en: 00: 39: 06.371
    00: 46: 55.645 : en: 00: 46: 55.645
    00: 54: 44.919 : en: 00: 54: 44.919
    01: 02: 34.193 : en: 01: 02: 34.193
    01: 10: 23.468 : en: 01: 10: 23.468
    01: 18: 12.742 : en: 01: 18: 12.742
    01: 26: 02.016 : en: 01: 26: 02.016

    Скриншоты для ознакомления



    Все одноименные релизы в Клубе
    Время раздачи: с 23: 00 до 8: 30 (до появления первых 3-5 скачавших)

    Онлайн видео Логово белого червя



    Логово белого червя/The Lair of the White Worm (1988) BDRip [H.264/720p]
    Рейтинг →
     (голосов: 1, оценка 5/5, голосовать можно 1 раз )

    Другие торренты по теме:

  • Логово белого червя / The Lair of the White Worm (1988) BDRemux [H.264 / 1080p]
  • Логово белого червя / The Lair of the White Worm (1988) BDRip [H.264 / 720p]
  • Логово белого червя / The Lair of the White Worm (1988) BDRip [H.264 / 1080p]


    • Комментарии (0):

      Информация

      Информация

        Посетители, находящиеся в группе Гости, не могут оставлять комментарии в данной новости.

        ↓ Меню




        ↓ Опрос

        Вы добавили сайт в закладки?
        Да
        Нет


        Популярное