.
Авторизация | Регистрация

bitok.xyz

» » Кровь и вино / Blood and Wine (1996) WEBRip [H.264 / 1080p] торрент скачать бесплатно


    Кровь и вино / Blood and Wine (1996) WEBRip [H.264 / 1080p] торрент скачать бесплатно

    Дата: 31-10-2019, 05:00 | .torrent скачали: 0

    Кровь и вино / Blood and Wine (1996) WEBRip [H.264 / 1080p]Производство: США, Великобритания/Fox Searchlight PicturesBlood Wine Productions, Fox Searchlight Pictures
    Жанр: Триллер, драма, криминал
    Режиссер: Боб Рейфелсон

    Актеры
    Джек Николсон, Стивен Дорфф, Дженнифер Лопез, Джуди Дэвис, Майкл Кейн, Хэролд Перрино, Робин Питерсон, Майк Старр, Джон Сайц, Марк Маколей

    Описание

    Торговец вином Алекс Гейтс пытается поддержать свой разваливающийся бизнес, совершив кражу бриллиантового ожерелья у одного из клиентов. В этом деле ему помогает любовница и взломщик сейфов. И все идет неплохо до тех пор, пока брошенная жена и пасынок не нарушают его планы и не скрываются вместе с добычей…

    Возраст: 16+ (зрителям, достигшим 16 лет)
    Рейтинг MPAA: R (лицам до 17 лет обязательно присутствие взрослого)
    Продолжительность: 01: 41: 10
    Качество видео: WEBRip (1080p)
    Перевод: Многоголосый закадровый, профессиональный, авторский
    Субтитры: Русские (full), английские (full)
    Видео: AVC/H.264, 1920x1080, ~8920 Kbps
    Аудио #1: AC3, 6 ch, 384 Kbps - Русский многоголосый (R5)
    Аудио #2: AC3, 6 ch, 384 Kbps - Русский авторский (С. Визгунов)
    Аудио #3: E-AC3, 6 ch, 640 Kbps - Английский (Оригинал)
    Общее
    Уникальный идентификатор : 70830837141937803464467567871637234316 (0x354985E4E2B7DB37190796C68772A28C)
    Полное имя : D: NNMКровь и виноBlood.and.Wine.1996.WEBRip.1080p.mkv
    Формат : Matroska
    Версия формата : Version 2
    Размер файла : 7, 12 Гбайт
    Продолжительность : 1 ч. 41 м.
    Режим общего битрейта : Переменный
    Общий поток : 10, 4 Мбит/сек
    Дата кодирования : UTC 2019-10-21 14: 48: 54
    Программа кодирования : mkvmerge v29.0.0 (\'Like It Or Not\') 64-bit
    Библиотека кодирования : libebml v1.3.6 + libmatroska v1.4.9
    Видео
    Идентификатор : 1
    Формат : AVC
    Формат/Информация : Advanced Video Codec
    Профиль формата : High@L4
    Настройки формата : CABAC/4 Ref Frames
    Параметр CABAC формата : Да
    Параметр RefFrames формата : 4 кадра
    Идентификатор кодека : V_MPEG4/ISO/AVC
    Продолжительность : 1 ч. 41 м.
    Вид битрейта : Переменный
    Битрейт : 8920 Кбит/сек
    Максимальный битрейт : 15, 0 Мбит/сек
    Ширина : 1920 пикселей
    Высота : 1080 пикселей
    Соотношение сторон : 16: 9
    Режим частоты кадров : Постоянный
    Частота кадров : 23, 976 (24000/1001) кадра/сек
    Цветовое пространство : YUV
    Субдискретизация насыщенности : 4: 2: 0
    Битовая глубина : 8 бит
    Тип развёртки : Прогрессивная
    Бит/(Пиксели*Кадры) : 0.174
    Размер потока : 6, 13 Гбайт (86%)
    Заголовок : Blood and Wine (1996) WEBRip 1080p; Rip. - NTb, assembly seyshel
    Default : Да
    Forced : Нет
    Цветовой диапазон : Limited
    Основные цвета : BT.709
    Характеристики трансфера : BT.709
    Коэффициенты матрицы : BT.709
    Аудио #1
    Идентификатор : 2
    Формат : AC-3
    Формат/Информация : Audio Coding 3
    Коммерческое название : Dolby Digital
    Идентификатор кодека : A_AC3
    Продолжительность : 1 ч. 41 м.
    Вид битрейта : Постоянный
    Битрейт : 384 Кбит/сек
    Каналы : 6 каналов
    ChannelLayout : L R C LFE Ls Rs
    Частота : 48, 0 КГц
    Частота кадров : 31, 250 кадров/сек (1536 SPF)
    Битовая глубина : 16 бит
    Метод сжатия : С потерями
    Размер потока : 278 Мбайт (4%)
    Заголовок : AC3; 48.0 KHz; 6 ch.; 384 Kbps - MVO (R5)
    Язык : Russian
    ServiceKind/String : Complete Main
    Default : Да
    Forced : Нет
    Аудио #2
    Идентификатор : 3
    Формат : AC-3
    Формат/Информация : Audio Coding 3
    Коммерческое название : Dolby Digital
    Идентификатор кодека : A_AC3
    Продолжительность : 1 ч. 41 м.
    Вид битрейта : Постоянный
    Битрейт : 384 Кбит/сек
    Каналы : 6 каналов
    ChannelLayout : L R C LFE Ls Rs
    Частота : 48, 0 КГц
    Частота кадров : 31, 250 кадров/сек (1536 SPF)
    Битовая глубина : 16 бит
    Метод сжатия : С потерями
    Размер потока : 278 Мбайт (4%)
    Заголовок : AC3; 48.0 KHz; 6 ch.; 384 Kbps - AVO (С.Визгунов)
    Язык : Russian
    ServiceKind/String : Complete Main
    Default : Нет
    Forced : Нет
    Аудио #3
    Идентификатор : 4
    Формат : E-AC-3
    Формат/Информация : Enhanced AC-3
    Коммерческое название : Dolby Digital Plus
    Идентификатор кодека : A_EAC3
    Продолжительность : 1 ч. 41 м.
    Вид битрейта : Постоянный
    Битрейт : 640 Кбит/сек
    Каналы : 6 каналов
    ChannelLayout : L R C LFE Ls Rs
    Частота : 48, 0 КГц
    Частота кадров : 31, 250 кадров/сек (1536 SPF)
    Метод сжатия : С потерями
    Размер потока : 463 Мбайт (6%)
    Заголовок : EAC3; 48.0 KHz; 6 ch.; 640 Kbps - Original
    Язык : English
    ServiceKind/String : Complete Main
    Default : Нет
    Forced : Нет
    Текст #1
    Идентификатор : 5
    Формат : UTF-8
    Идентификатор кодека : S_TEXT/UTF8
    Идентификатор кодека/Информация : UTF-8 Plain Text
    Продолжительность : 1 ч. 35 м.
    Битрейт : 49 бит/сек
    ElementCount : 776
    Размер потока : 34, 8 Кбайт (0%)
    Заголовок : Russian - SRT
    Язык : Russian
    Default : Нет
    Forced : Нет
    Текст #2
    Идентификатор : 6
    Формат : UTF-8
    Идентификатор кодека : S_TEXT/UTF8
    Идентификатор кодека/Информация : UTF-8 Plain Text
    Продолжительность : 1 ч. 32 м.
    Битрейт : 38 бит/сек
    ElementCount : 835
    Размер потока : 26, 1 Кбайт (0%)
    Заголовок : English - SRT
    Язык : English
    Default : Нет
    Forced : Нет
    Меню
    00: 00: 00.000 : en: Chapter 01
    00: 05: 10.058 : en: Chapter 02
    00: 09: 28.317 : en: Chapter 03
    00: 18: 27.272 : en: Chapter 04
    00: 21: 36.878 : en: Chapter 05
    00: 31: 21.488 : en: Chapter 06
    00: 42: 12.028 : en: Chapter 07
    00: 47: 39.770 : en: Chapter 08
    00: 54: 39.651 : en: Chapter 09
    01: 02: 27.994 : en: Chapter 10
    01: 07: 44.809 : en: Chapter 11
    01: 16: 38.886 : en: Chapter 12
    01: 21: 41.520 : en: Chapter 13
    01: 28: 43.942 : en: Chapter 14
    01: 33: 29.519 : en: Chapter 15
    01: 37: 05.068 : en: Chapter 16

    Скриншоты для ознакомления



    Все одноименные релизы в Клубе Время раздачи: 24/7 (до появления первых 3-5 скачавших)

    Онлайн видео Кровь и вино



    Кровь и вино/Blood and Wine (1996) WEBRip [H.264/1080p]
    Рейтинг →
     (голосов: 1, оценка 4/5, голосовать можно 1 раз )

    Другие торренты по теме:

  • Кровь и вино / Blood and Wine (1996) DVDRip [H.264]
  • The Witcher 3: Blood and wine + Heart of Stone / Ведьмак 3: Кровь и вино + Каменные сердца (2015) [Ru] (1.21 / dlc) Repack =nemos=


    • Комментарии (0):

      Информация

      Информация

        Посетители, находящиеся в группе Гости, не могут оставлять комментарии в данной новости.

        ↓ Меню




        ↓ Опрос

        Вы добавили сайт в закладки?
        Да
        Нет


        Популярное