.
Авторизация | Регистрация

bitok.xyz

» » Огненные версты (1957) DVBRip [Н.264] торрент скачать бесплатно


    Огненные версты (1957) DVBRip [Н.264] торрент скачать бесплатно

    Дата: 31-10-2019, 05:00 | .torrent скачали: 1

    Огненные версты (1957) DVBRip [Н.264]Производство: СССР/Мосфильм
    Жанр: История, приключения, военный
    Режиссер: Самсон Самсонов

    Актеры
    Маргарита Володина, Иван Савкин, Владимир Кенигсон, Михаил Трояновский, Антоний Ходурский, Евгений Буренков, Виктор Степанов , Никита Кондратьев, Вениамин Цыганков

    Описание

    Гражданская война. Южные степи России. Обстоятельства сводят вместе различных людей: чекиста, профессора, артиста, медсестру и белогвардейского офицера, выдающего себя за ветеринара. На двух тачанках они пробираются в город. Задача ветеринара, попав в город, организовать мятеж против советской власти...

    Возраст: 12+ (зрителям, достигшим 12 лет)
    Продолжительность: 01: 19: 35
    Качество видео: DVBRip
    Видео: AVC/H.264, 720х560, ~1740 kbps
    Аудио: MP2, 2 ch, 256 kbps
    Общее
    Уникальный идентификатор : 202231400936090631775653287768344363535 (0x982459E01ADC62148056AF3FEE62020F)
    Полное имя : D: Советские фильмыВолодина Маргарита ВладимировнаОгненные верстыОгненные версты (1957).mkv
    Формат : Matroska
    Версия формата : Version 4/Version 2
    Размер файла : 1, 11 Гбайт
    Продолжительность : 1 ч. 19 м.
    Общий поток : 1998 Кбит/сек
    Название фильма : Release for Topmost
    Дата кодирования : UTC 2019-10-30 14: 16: 50
    Программа кодирования : mkvmerge v6.2.0 (\'Promised Land\') built on Apr 28 2013 12: 22: 01
    Библиотека кодирования : libebml v1.3.0 + libmatroska v1.4.0
    Attachment : Yes
    Видео
    Идентификатор : 1
    Формат : AVC
    Формат/Информация : Advanced Video Codec
    Профиль формата : High@L4.1
    Параметр CABAC формата : Да
    Параметр ReFrames формата : 12 кадров
    Идентификатор кодека : V_MPEG4/ISO/AVC
    Продолжительность : 1 ч. 19 м.
    Битрейт : 1740 Кбит/сек
    Ширина : 720 пикселей
    Высота : 560 пикселей
    Соотношение сторон : 1, 286
    Режим частоты кадров : Постоянный
    Частота кадров : 25, 000 кадров/сек
    Цветовое пространство : YUV
    Субдискретизация насыщенности : 4: 2: 0
    Битовая глубина : 8 бит
    Тип развёртки : Прогрессивная
    Бит/(Пиксели*Кадры) : 0.173
    Размер потока : 969 Мбайт (85%)
    Заголовок : Огненные версты (Release for Topmost)
    Библиотека кодирования : x264 core 146 r2538 121396c
    Настройки программы : cabac=1/ref=12/deblock=1: -3: -3/analyse=0x3: 0x113/me=umh/subme=11/psy=1/psy_rd=1.00: 0.15/mixed_ref=1/me_range=32/chroma_me=1/trellis=2/8x8dct=1/cqm=0/deadzone=21, 11/fast_pskip=0/chroma_qp_offset=-3/threads=12/lookahead_threads=2/sliced_threads=0/nr=0/decimate=0/interlaced=0/bluray_compat=0/constrained_intra=0/bframes=8/b_pyramid=2/b_adapt=2/b_bias=0/direct=1/weightb=1/open_gop=0/weightp=2/keyint=240/keyint_min=23/scenecut=40/intra_refresh=0/rc_lookahead=40/rc=2pass/mbtree=0/bitrate=1740/ratetol=1.0/qcomp=0.60/qpmin=0/qpmax=69/qpstep=4/cplxblur=20.0/qblur=0.5/vbv_maxrate=14000/vbv_bufsize=14000/nal_hrd=none/filler=0/ip_ratio=1.40/pb_ratio=1.30/aq=1: 0.90
    Язык : Russian
    Default : Да
    Forced : Нет
    Аудио
    Идентификатор : 2
    Формат : MPEG Audio
    Версия формата : Version 1
    Профиль формата : Layer 2
    Идентификатор кодека : A_MPEG/L2
    Идентификатор кодека/Подсказка : MP2
    Продолжительность : 1 ч. 19 м.
    Вид битрейта : Постоянный
    Битрейт : 256 Кбит/сек
    Каналы : 2 канала
    Частота : 48, 0 КГц
    Метод сжатия : С потерями
    Размер потока : 146 Мбайт (13%)
    Заголовок : MPEG2, 2 ch, 256 kbps
    Язык : Russian
    Default : Да
    Forced : Нет

    Скриншоты для ознакомления



    Все одноименные релизы в Клубе
    Время раздачи: 24/7 до 5 скачавших (до появления первых 3-5 скачавших)

    Огненные версты (1957) DVBRip [Н.264]
    Рейтинг →
     (голосов: 1, оценка 3/5, голосовать можно 1 раз )

    Другие торренты по теме:

  • Большие огненные шары / Great Balls of Fire! (1989) HDTV [H.264 / 1080i] скачать через торрент бесплатно
  • Огненные птицы / Fire Birds (1990) BDRip [H.264 / 720p] [EN, RU]
  • Огненные птицы / Fire Birds (1990) HDRip [H.264] [AVO]
  • Огненные птицы / Fire Birds (1990) BDRip [H.264 / 1080p] [AVO]
  • Маркус Сэйки | Огненные письмена (2016) [FB2]
  • Battlestrike: The Siege / 1944: Огненные рубежи (2005) [Ru] (1.0) License
  • Большие огненные шары / Great Balls of Fire! (1989) BDRemux [H.264 / 1080p]
  • Огненные колесницы / Chariots of Fire (1981) DVB [H.264 / 1080i-LQ]


    • Комментарии (0):

      Информация

      Информация

        Посетители, находящиеся в группе Гости, не могут оставлять комментарии в данной новости.

        ↓ Меню




        ↓ Опрос

        Вы добавили сайт в закладки?
        Да
        Нет


        Популярное