.
Авторизация | Регистрация

bitok.xyz

» » Доктор Живаго (2005) DVDRemux (сезон 1, серии 1-11 из 11) торрент скачать бесплатно


    Доктор Живаго (2005) DVDRemux (сезон 1, серии 1-11 из 11) торрент скачать бесплатно

    Дата: 31-10-2019, 05:00 | .torrent скачали: 0

    Доктор Живаго (2005) DVDRemux (сезон 1, серии 1-11 из 11)Производство: Россия
    Жанр: Драма
    Режиссер: Александр Прошкин

    Актеры
    Олег Меньшиков, Сергей Гармаш, Владимир Ильин, Чулпан Хаматова, Андрей Панин, Кирилл Пирогов, Олег Янковский, Андрей Краско, Алексей Петренко, Наталья Коляканова

    Описание
    Первая отечественная экранизация легендарного романа Бориса Пастернака, удостоенного Нобелевской премии!
    Личная драма молодого врача-интеллигента разворачивается на фоне социальных и исторических потрясений начала прошлого века. Рассказ о пронзительной любви и духовных исканиях.

    Возраст: 16+ (зрителям, достигшим 16 лет)
    Релиз от: almikl ®
    Продолжительность: ~ 00: 45: 00 серия
    Качество видео: DVDRemux
    Видео: MPEG-2, 720x576@768x576, ~4500 Kbps
    Аудио #1: AC3, 6 ch, 448 Kbps
    Аудио #2: DTS, 6 ch, 775 Kbps
    Общее
    Уникальный идентификатор : 166512602217646671164789610310310882761 (0x7D452921DB9F9B9F02D54B9DF880EDC9)
    Полное имя : E01.Доктор Живаго.2005.DVDRemux.almikl.nnmclub.mkv
    Формат : Matroska
    Версия формата : Version 2
    Размер файла : 1, 85 Гбайт
    Продолжительность : 46 м. 21 с.
    Режим общего битрейта : Переменный
    Общий поток : 5706 Кбит/сек
    Дата кодирования : UTC 2019-10-29 09: 46: 07
    Программа кодирования : MakeMKV v1.14.5 win(x64-release)
    Библиотека кодирования : libmakemkv v1.14.5 (1.3.5/1.4.7) win(x64-release)
    Видео
    Идентификатор : 1
    OriginalSourceMedium_ID/String : 224 (0xE0)
    Формат : MPEG Video
    Версия формата : Version 2
    Профиль формата : Main@Main
    Настройки формата : CustomMatrix/BVOP
    Параметр BVOP формата : Да
    Параметр матрицы формата : Выборочная
    Параметр GOP формата : M=3, N=15
    Структура изображения : Frame
    Идентификатор кодека : V_MPEG2
    Идентификатор кодека/Информация : MPEG 1 or 2 Video
    Продолжительность : 46 м. 21 с.
    Вид битрейта : Переменный
    Битрейт : 4498 Кбит/сек
    Максимальный битрейт : 8000 Кбит/сек
    Ширина : 720 пикселей
    Высота : 576 пикселей
    Соотношение сторон : 4: 3
    Режим частоты кадров : Постоянный
    Частота кадров : 25, 000 кадров/сек
    Стандарт вещания : PAL
    Цветовое пространство : YUV
    Субдискретизация насыщенности : 4: 2: 0
    Битовая глубина : 8 бит
    Тип развёртки : Чересстрочная
    Порядок развёртки : Верхнее поле первое
    Метод сжатия : С потерями
    Бит/(Пиксели*Кадры) : 0.434
    Временной код первого кадра : 01: 00: 00: 00
    Оригинал временного кода : Group of pictures t_head
    GOP, открыто/закрыто : Закрыто
    Размер потока : 1, 46 Гбайт (79%)
    Язык : English
    Default : Нет
    Forced : Нет
    Носитель оригинала : DVD-Video
    Аудио #1
    Идентификатор : 2
    OriginalSourceMedium_ID/String : 189 (0xBD)128 (0x80)
    Формат : AC-3
    Формат/Информация : Audio Coding 3
    Коммерческое название : Dolby Digital
    Идентификатор кодека : A_AC3
    Продолжительность : 46 м. 21 с.
    Вид битрейта : Постоянный
    Битрейт : 448 Кбит/сек
    Каналы : 6 каналов
    ChannelLayout : L R C LFE Ls Rs
    Частота : 48, 0 КГц
    Частота кадров : 31, 250 кадров/сек (1536 SPF)
    Метод сжатия : С потерями
    Размер потока : 149 Мбайт (8%)
    Заголовок : Surround 5.1
    Язык : Russian
    ServiceKind/String : Complete Main
    Default : Да
    Forced : Нет
    Носитель оригинала : DVD-Video
    Аудио #2
    Идентификатор : 3
    OriginalSourceMedium_ID/String : 189 (0xBD)137 (0x89)
    Формат : DTS
    Формат/Информация : Digital Theater Systems
    Идентификатор кодека : A_DTS
    Продолжительность : 46 м. 21 с.
    Вид битрейта : Постоянный
    Битрейт : 755 Кбит/сек
    Каналы : 6 каналов
    ChannelLayout : C L R Ls Rs LFE
    Частота : 48, 0 КГц
    Частота кадров : 93, 750 кадра/сек (512 SPF)
    Битовая глубина : 24 бит
    Метод сжатия : С потерями
    Размер потока : 250 Мбайт (13%)
    Заголовок : Surround 5.1
    Язык : Russian
    Default : Нет
    Forced : Нет
    Носитель оригинала : DVD-Video
    Меню
    00: 00: 00.080 : en: Chapter 01
    00: 11: 27.680 : en: Chapter 02
    00: 22: 50.480 : en: Chapter 03
    00: 33: 12.680 : en: Chapter 04

    Скриншоты для ознакомления



    Все одноименные релизы в Клубе
    Время раздачи: 247 (до появления первых 3-5 скачавших)

    Онлайн видео Доктор Живаго (2005) DVDRemux (сезон любимого сериала 1, серии 1



    Доктор Живаго (2005) DVDRemux (сезон 1, серии 1-11 из 11)
    Рейтинг →
     (голосов: 1, оценка 3/5, голосовать можно 1 раз )

    Другие торренты по теме:

  • Борис Пастернак | Доктор Живаго (2008) [MP3]
  • Доктор Живаго / Doctor Zhivago (2002) DVDRip
  • BBC. Настоящий доктор Живаго / The Real Doctor Zhivago (2017) HDTVRip
  • Настоящий доктор Живаго / The Real Doctor Zhivago (2017) HDTVRip [H.264 / 1080p-LQ]
  • Доктор Живаго (2006) DVDRip (сезон 1, серии 1-11 из 11)
  • Доктор Живаго (2005) (сезон 1, серии 1-1 из 11) 3хDVD9, 1хDVD5 [Подарочное издание]


    • Комментарии (0):

      Информация

      Информация

        Посетители, находящиеся в группе Гости, не могут оставлять комментарии в данной новости.

        ↓ Меню




        ↓ Опрос

        Вы добавили сайт в закладки?
        Да
        Нет


        Популярное