.
Авторизация | Регистрация

bitok.xyz

» » Моими глазами (2013) WEB-DL [H.264 / 720p-LQ] (сезон 1, серии 1-19 из 19) торрент скачать бесплатно


    Моими глазами (2013) WEB-DL [H.264 / 720p-LQ] (сезон 1, серии 1-19 из 19) торрент скачать бесплатно

    Дата: 31-10-2019, 05:00 | .torrent скачали: 2

    Моими глазами (2013) WEB-DL [H.264 / 720p-LQ] (сезон 1, серии 1-19 из 19)Производство: Россия/Фокус Плюс Синема для ОАО ТНТ-Телесеть
    Жанр: триллер, мистика
    Режиссер: Заур Болотаев

    Актеры
    Анатолий Горячев, Дмитрий Готсдинер, Александр Бобров, Ирина Денисова, Константин Шелестун, Дмитрий Поднозов, Макар Запорожский, Вячеслав Чепурченко, Павел Ясенок, Лилия Разакова и др.

    Описание

    Сериал построен по принципу складывающейся головоломки. Каждую серию мы видим глазами ее главного героя. У каждого героя своя история в рамках серии. Эти истории переплетаются между собой, опираясь на систему флешбэков и флешфорвардов. Одни и те же события зритель увидит глазами каждого персонажа, принимающего в них участие.

    Возраст: 16+ (зрителям, достигшим 16 лет)
    Продолжительность: ~00: 23: 00 серия
    Качество видео: WEB-DL
    Видео: AVC/H.264, 1280x720 (16: 9), ~2890 Kbps
    Аудио: AC3, 2 ch, 192 Kbps
    Общее
    Уникальный идентификатор : 310044155521904774320587636121007589014 (0xE9405512EF975E7AFA026BC20E988696)
    Полное имя : D: Моими глазами (2013).by.АлехаndrМоими глазами. 01 серия. Красавчик (глазами Леши).by.Алехаndr.mkv
    Формат : Matroska
    Версия формата : Version 4
    Размер файла : 574 Мбайт
    Продолжительность : 25 м. 30 с.
    Режим общего битрейта : Переменный
    Общий поток : 3146 Кбит/сек
    Программа кодирования : Lavf57.71.100
    Библиотека кодирования : Lavf57.71.100
    ErrorDetectionType : Per level 1
    Видео
    Идентификатор : 1
    Формат : AVC
    Формат/Информация : Advanced Video Codec
    Профиль формата : High@L3.1
    Настройки формата : CABAC/1 Ref Frames
    Параметр CABAC формата : Да
    Параметр RefFrames формата : 1 кадр
    Параметр GOP формата : M=1, N=50
    Идентификатор кодека : V_MPEG4/ISO/AVC
    Продолжительность : 25 м. 30 с.
    Вид битрейта : Переменный
    Битрейт : 2891 Кбит/сек
    Максимальный битрейт : 3000 Кбит/сек
    Ширина : 1280 пикселей
    Высота : 720 пикселей
    Соотношение сторон : 16: 9
    Режим частоты кадров : Постоянный
    Частота кадров : 25, 000 кадров/сек
    Цветовое пространство : YUV
    Субдискретизация насыщенности : 4: 2: 0
    Битовая глубина : 8 бит
    Тип развёртки : Прогрессивная
    Бит/(Пиксели*Кадры) : 0.125
    Размер потока : 528 Мбайт (92%)
    Default : Да
    Forced : Нет
    Аудио
    Идентификатор : 2
    Формат : AC-3
    Формат/Информация : Audio Coding 3
    Коммерческое название : Dolby Digital
    Идентификатор кодека : A_AC3
    Продолжительность : 25 м. 30 с.
    Вид битрейта : Постоянный
    Битрейт : 192 Кбит/сек
    Каналы : 2 канала
    ChannelLayout : L R
    Частота : 48, 0 КГц
    Частота кадров : 31, 250 кадров/сек (1536 SPF)
    Битовая глубина : 32 бит
    Метод сжатия : С потерями
    Размер потока : 35, 0 Мбайт (6%)
    ServiceKind/String : Complete Main
    Default : Да
    Forced : Нет

    Скриншоты для ознакомления



    Все одноименные релизы в Клубе
    Время раздачи: 24/7 (круглосуточно) (до появления первых 3-5 скачавших)

    Онлайн видео Моими глазами (2013) WEB-DL [H.264



    Моими глазами (2013) WEB-DL [H.264/720p-LQ] (сезон 1, серии 1-19 из 19)
    Рейтинг →
     (голосов: 1, оценка 5/5, голосовать можно 1 раз )

    Другие торренты по теме:

  • Моими глазами (2013) WEBRip (сезон 1, серии 1-19 из 19)


    • Комментарии (0):

      Информация

      Информация

        Посетители, находящиеся в группе Гости, не могут оставлять комментарии в данной новости.

        ↓ Меню




        ↓ Опрос

        Вы добавили сайт в закладки?
        Да
        Нет


        Популярное