.
Авторизация | Регистрация

bitok.xyz

» » Прятки (2019) WEB-DLRip [H.264] (сезон 1, серии 1-3 из 8) (обновляемая) торрент скачать бесплатно


    Прятки (2019) WEB-DLRip [H.264] (сезон 1, серии 1-3 из 8) (обновляемая) торрент скачать бесплатно

    Дата: 31-10-2019, 05:00 | .torrent скачали: 0

    Прятки (2019) WEB-DLRip [H.264] (сезон 1, серии 1-3 из 8) (обновляемая)Производство: Украина | Film.UA, ZDF.Enterprises
    Жанр: детектив, триллер, криминал
    Режиссер: Ирина Громозда

    Актеры
    Юлия Абдель-Фаттах, Пётр Рыков, Александр Кобзарь, Вячеслав Довженко, Михаил Тройник, Яков Кучеревский, Олег Москаленко, Валерий Легин, Владимир Заец, Евгения Гладий и др.

    Описание

    Два детектива, Варта Наумова и Максим Шумов, расследуют похищение маленькой девочки из запертой квартиры...
    Во время домашней игры в прятки, таинственным образом исчезает девочка. Из квартиры она не выходила, дверь не открывала. Осознав, что дочка действительно исчезла, отец обращается в полицию. Позже в Сети появляется видео, где пропавшая девочка держит табличку с загадочной комбинацией цифр. Очевидно, что ребенок похищен, и это – лишь первая жертва в чьей-то сложной и жестокой игре...
    Дата мировой премьеры: 29 октября 2019
    Продолжительность: ~00: 47: 00 серия
    Качество видео: WEB-DLRip
    Язык озвучки: русский
    Видео: AVC/H.264, 1024x512 (2.000), ~1600 kbps
    Аудио: AC3, 2 ch, 192 kbps
    General
    Unique ID : 204332454283394010050647761539718624767 (0x99B8FFCDA1E96179BEE9B0B55FDEB5FF)
    Complete name : D: _RUSSIANПрятки_S01_2019_WEB-DLRip_AVCПрятки_S01_2019_WEB-DLRip_AVC_01.mkv
    Format : Matroska
    Format version : Version 2
    File size : 596 MiB
    Duration : 46 min 28 s
    Overall bit rate : 1 793 kb/s
    Encoded date : UTC 2019-10-30 12: 54: 00
    Writing application : mkvmerge v7.8.0 (\'River Man\') 32bit built on Apr 3 2015 12: 11: 22
    Writing library : libebml v1.3.1 + libmatroska v1.4.2
    Video
    ID : 1
    Format : AVC
    Format/Info : Advanced Video Codec
    Format profile : High@L4.1
    Format settings : CABAC/9 Ref Frames
    Format settings, CABAC : Yes
    Format settings, ReFrames : 9 frames
    Codec ID : V_MPEG4/ISO/AVC
    Duration : 46 min 28 s
    Bit rate : 1 600 kb/s
    Width : 1 024 pixels
    Height : 512 pixels
    Display aspect ratio : 2.000
    Frame rate mode : Constant
    Frame rate : 25.000 FPS
    Color space : YUV
    Chroma subsampling : 4: 2: 0
    Bit depth : 8 bits
    Scan type : Progressive
    Bits/(Pixel*Frame) : 0.122
    Stream size : 521 MiB (87%)
    Writing library : x264 core 146 r2538 121396c
    Encoding settings : cabac=1/ref=9/deblock=1: -2: -1/analyse=0x3: 0x133/me=umh/subme=9/psy=1/psy_rd=1.00: 0.15/mixed_ref=1/me_range=32/chroma_me=1/trellis=2/8x8dct=1/cqm=0/deadzone=21, 11/fast_pskip=0/chroma_qp_offset=-3/threads=18/lookahead_threads=3/sliced_threads=0/nr=0/decimate=1/interlaced=0/bluray_compat=0/constrained_intra=0/bframes=9/b_pyramid=2/b_adapt=2/b_bias=0/direct=1/weightb=1/open_gop=0/weightp=2/keyint=250/keyint_min=25/scenecut=40/intra_refresh=0/rc=2pass/mbtree=0/bitrate=1600/ratetol=1.0/qcomp=0.60/qpmin=0/qpmax=69/qpstep=4/cplxblur=20.0/qblur=0.5/ip_ratio=1.40/pb_ratio=1.30/aq=2: 1.00
    Default : Yes
    Forced : No
    Color range : Limited
    Color primaries : BT.709
    Transfer characteristics : BT.709
    Matrix coefficients : BT.709
    Audio
    ID : 2
    Format : AC-3
    Format/Info : Audio Coding 3
    Commercial name : Dolby Digital
    Codec ID : A_AC3
    Duration : 46 min 28 s
    Bit rate mode : Constant
    Bit rate : 192 kb/s
    Channel(s) : 2 channels
    Channel layout : L R
    Sampling rate : 48.0 kHz
    Frame rate : 31.250 FPS (1536 SPF)
    Bit depth : 16 bits
    Compression mode : Lossy
    Stream size : 63.8 MiB (11%)
    Service kind : Complete Main
    Default : Yes
    Forced : No

    Скриншоты для ознакомления



    Все одноименные релизы в Клубе
    Время раздачи: 24/7 (до появления первых 3-5 скачавших)

    Онлайн видео Прятки (2019) WEB



    Прятки (2019) WEB-DLRip [H.264] (сезон 1, серии 1-3 из 8) (обновляемая)
    Рейтинг →
     (голосов: 1, оценка 4/5, голосовать можно 1 раз )

    Другие торренты по теме:

  • Анастасия Левковская | Прятки без правил (2014) [FB2]
  • Константин Скуратов | Прятки по-взрослому. Выживает умнейший (2015) [FB2] скачать через торрент бесплатно
  • Ольга Романовская | Прятки с демоном (2015) [FB2]
  • Игра в прятки / Hide and Seek (2005) HDTV [H.264 / 1080i]
  • Игра в прятки / Hide and Seek (2005) BDRip [H.264]
  • Игра в прятки / Hide and Seek (2005) BDRemux [H.264 / 1080p]
  • Игра в прятки / Hide and Seek (2005) HDRip
  • Бекки Мастерман | Прятки со смертью (2016) [MP3]


    • Комментарии (0):

      Информация

      Информация

        Посетители, находящиеся в группе Гости, не могут оставлять комментарии в данной новости.

        ↓ Меню




        ↓ Опрос

        Вы добавили сайт в закладки?
        Да
        Нет


        Популярное