.
Авторизация | Регистрация

bitok.xyz

» » Прятки (2019) WEB-DL [H.264 / 1080p-LQ] (сезон 1, серии 1-3 из 8) (обновляемая) торрент скачать бесплатно


    Прятки (2019) WEB-DL [H.264 / 1080p-LQ] (сезон 1, серии 1-3 из 8) (обновляемая) торрент скачать бесплатно

    Дата: 31-10-2019, 05:00 | .torrent скачали: 1

    Прятки (2019) WEB-DL [H.264 / 1080p-LQ] (сезон 1, серии 1-3 из 8) (обновляемая)Производство: Украина | Film.UA, ZDF.Enterprises
    Жанр: детектив, триллер, криминал
    Режиссер: Ирина Громозда

    Актеры
    Юлия Абдель-Фаттах, Пётр Рыков, Александр Кобзарь, Вячеслав Довженко, Михаил Тройник, Яков Кучеревский, Олег Москаленко, Валерий Легин, Владимир Заец, Евгения Гладий и др.

    Описание

    Два детектива, Варта Наумова и Максим Шумов, расследуют похищение маленькой девочки из запертой квартиры...
    Во время домашней игры в прятки, таинственным образом исчезает девочка. Из квартиры она не выходила, дверь не открывала. Осознав, что дочка действительно исчезла, отец обращается в полицию. Позже в Сети появляется видео, где пропавшая девочка держит табличку с загадочной комбинацией цифр. Очевидно, что ребенок похищен, и это – лишь первая жертва в чьей-то сложной и жестокой игре...
    Дата мировой премьеры: 29 октября 2019
    Продолжительность: ~00: 47: 00 серия
    Качество видео: WEB-DL
    Язык озвучки: русский
    Видео: AVC/H.264, 1920x960 (2.000), ~3958 kbps
    Аудио: AC3, 2 ch, 192 kbps
    General
    Unique ID : 185365678994339967018350779635928055373 (0x8B742195410E07669CE89CA6A056BE4D)
    Complete name : D: Прятки_S01_2019_WEB-DL_1080pПрятки_S01_2019_WEB-DL_1080p_01.mkv
    Format : Matroska
    Format version : Version 4
    File size : 1.35 GiB
    Duration : 46 min 25 s
    Overall bit rate : 4 152 kb/s
    Encoded date : UTC 2019-10-30 12: 46: 42
    Writing application : mkvmerge v7.8.0 (\'River Man\') 32bit built on Mar 27 2015 16: 18: 02
    Writing library : libebml v1.3.1 + libmatroska v1.4.2
    Video
    ID : 1
    Format : AVC
    Format/Info : Advanced Video Codec
    Format profile : High@L4
    Format settings : CABAC/3 Ref Frames
    Format settings, CABAC : Yes
    Format settings, ReFrames : 3 frames
    Codec ID : V_MPEG4/ISO/AVC
    Duration : 46 min 25 s
    Bit rate : 3 958 kb/s
    Width : 1 920 pixels
    Height : 960 pixels
    Display aspect ratio : 2.000
    Frame rate mode : Constant
    Frame rate : 25.000 FPS
    Color space : YUV
    Chroma subsampling : 4: 2: 0
    Bit depth : 8 bits
    Scan type : Progressive
    Bits/(Pixel*Frame) : 0.086
    Stream size : 1.28 GiB (95%)
    Default : Yes
    Forced : No
    Audio
    ID : 2
    Format : AC-3
    Format/Info : Audio Coding 3
    Commercial name : Dolby Digital
    Codec ID : A_AC3
    Duration : 46 min 25 s
    Bit rate mode : Constant
    Bit rate : 192 kb/s
    Channel(s) : 2 channels
    Channel layout : L R
    Sampling rate : 48.0 kHz
    Frame rate : 31.250 FPS (1536 SPF)
    Bit depth : 16 bits
    Compression mode : Lossy
    Stream size : 63.8 MiB (5%)
    Service kind : Complete Main
    Default : Yes
    Forced : No

    Скриншоты для ознакомления



    Все одноименные релизы в Клубе
    Время раздачи: 24/7 (до появления первых 3-5 скачавших)

    Онлайн видео Прятки (2019) WEB-DL [H.264



    Прятки (2019) WEB-DL [H.264/1080p-LQ] (сезон 1, серии 1-3 из 8) (обновляемая)
    Рейтинг →
     (голосов: 1, оценка 4/5, голосовать можно 1 раз )

    Другие торренты по теме:



      Комментарии (0):

      Информация

      Информация

        Посетители, находящиеся в группе Гости, не могут оставлять комментарии в данной новости.

        ↓ Меню




        ↓ Опрос

        Вы добавили сайт в закладки?
        Да
        Нет


        Популярное