.
Авторизация | Регистрация

bitok.xyz

» » Миссис Флетчер / Mrs. Fletcher (2019) WEBRip [H.264 / 720p-LQ] (сезон 1, серии 1 из 8) JimmyJ (обновляемая) [AD] торрент скачать бесплатно


    Миссис Флетчер / Mrs. Fletcher (2019) WEBRip [H.264 / 720p-LQ] (сезон 1, серии 1 из 8) JimmyJ (обновляемая) [AD] торрент скачать бесплатно

    Дата: 31-10-2019, 05:00 | .torrent скачали: 0

    Миссис Флетчер / Mrs. Fletcher (2019) WEBRip [H.264 / 720p-LQ] (сезон 1, серии 1 из 8) JimmyJ (обновляемая) [AD]Производство: США | Home Box Office (HBO)
    Жанр: комедия
    Режиссер: Джиллиан Робеспьер, Николь Холофсенер

    Актеры
    Кэтрин Хан, Джен Ричардс, Оуэн Тиг, Джексон Уайт, Кейси Уилсон, Рашад Эдвардс, Доменик Ломбардоззи, Кэти Кершо, Эрика Николь Лэнс, Брет Тэмпл

    Описание

    Ив Флетчер — мать-одиночка, чей единственный ребёнок отправился учиться в колледж. Ив решает оживить свою личную жизнь и придумывает себе сексуальное альтер эго. Неожиданно она обнаруживает, что мир скрывает в себе бесконечные возможности для эротических подвигов.

    Дата мировой премьеры: 27 октября 2019
    Дата российской премьеры: 28 октября 2019
    Релиз от: JimmyJ
    Продолжительность: ~00: 30: 00 серия
    Качество видео: WEBRip 720p
    Перевод: Двуголосый любительский (JimmyJ)
    Реклама: присутствуют видео, аудио, текстовые вставки рекламы
    Видео: AVC/H.264, 1280х720 (16: 9), ~4000 kbps
    Аудио: AC3, 2 ch, 256 Kbps
    General
    Unique ID : 145777805330396844329854066015857909182 (0x6DABC8B795C9AF439B9ACEDDA4F59DBE)
    Complete name : E: TorrentJimmyJMrs.Fletcher.S01.720p.WEBRip.JimmyJMrs.Fletcher.S01E01.720p.WEBRip.JimmyJ.mkv
    Format : Matroska
    Format version : Version 4
    File size : 966 MiB
    Duration : 31 min 42 s
    Overall bit rate : 4 259 kb/s
    Writing application : XviD4PSP 8.0.89
    Writing library : Lavf58.20.100
    ErrorDetectionType : Per level 1
    ENCODING_INFO : MATROSKA, WEBM MKV 720p
    Video
    ID : 1
    Format : AVC
    Format/Info : Advanced Video Codec
    Format profile : High@L4.1
    Format settings : CABAC/1 Ref Frames
    Format settings, CABAC : Yes
    Format settings, Reference : 1 frame
    Codec ID : V_MPEG4/ISO/AVC
    Duration : 31 min 42 s
    Bit rate : 4 000 kb/s
    Width : 1 280 pixels
    Height : 720 pixels
    Display aspect ratio : 16: 9
    Frame rate mode : Constant
    Frame rate : 23.976 (24000/1001) FPS
    Color space : YUV
    Chroma subsampling : 4: 2: 0
    Bit depth : 8 bits
    Scan type : Progressive
    Bits/(Pixel*Frame) : 0.181
    Stream size : 889 MiB (92%)
    Writing library : x264 core 157 r2958 57baac4
    Encoding settings : cabac=1/ref=1/deblock=0: -6: -6/analyse=0x3: 0/me=dia/subme=0/psy=1/psy_rd=1.00: 0.00/mixed_ref=0/me_range=4/chroma_me=1/trellis=0/8x8dct=1/cqm=0/deadzone=21, 11/fast_pskip=1/chroma_qp_offset=0/threads=7/lookahead_threads=1/sliced_threads=0/nr=0/decimate=1/interlaced=0/bluray_compat=0/constrained_intra=0/bframes=0/weightp=0/keyint=240/keyint_min=24/scenecut=0/intra_refresh=0/rc=2pass/mbtree=0/bitrate=4000/ratetol=1.0/qcomp=0.60/qpmin=0/qpmax=69/qpstep=4/cplxblur=20.0/qblur=0.5/ip_ratio=1.40/aq=0
    Language : English
    Default : Yes
    Forced : No
    Color range : Limited
    Color primaries : BT.709
    Transfer characteristics : BT.709
    Matrix coefficients : BT.709
    ENCODING_INFO : H264 X264 VBR-2P 4000kbps Ultra Fast
    Audio
    ID : 2
    Format : AC-3
    Format/Info : Audio Coding 3
    Commercial name : Dolby Digital
    Codec ID : A_AC3
    Duration : 31 min 42 s
    Bit rate mode : Constant
    Bit rate : 256 kb/s
    Channel(s) : 2 channels
    Channel layout : L R
    Sampling rate : 48.0 kHz
    Frame rate : 31.250 FPS (1536 SPF)
    Bit depth : 32 bits
    Compression mode : Lossy
    Stream size : 58.1 MiB (6%)
    Title : DVO JimmyJ
    Language : Russian
    Service kind : Complete Main
    Default : Yes
    Forced : No
    ENCODING_INFO : AC3 AC3 CBR 256kbps

    Скриншоты для ознакомления



    Все одноименные релизы в Клубе
    Время раздачи: 24/7 (до появления первых 3-5 скачавших)

    Онлайн видео Миссис Флетчер



    Миссис Флетчер/Mrs. Fletcher (2019) WEBRip [H.264/720p-LQ] (сезон 1, серии 1 из 8) JimmyJ (обновляемая) [AD]
    Рейтинг →
     (голосов: 1, оценка 5/5, голосовать можно 1 раз )

    Другие торренты по теме:

  • Миссис Флетчер / Mrs. Fletcher (2019) WEBRip (сезон 1, серии 1 из 8) JimmyJ (обновляемая) [AD]
  • Миссис Флетчер / Mrs. Fletcher (2019) WEBRip [H.264 / 1080p-LQ] (сезон 1, серии 1 из 8) JimmyJ (обновляемая) [AD]


    • Комментарии (0):

      Информация

      Информация

        Посетители, находящиеся в группе Гости, не могут оставлять комментарии в данной новости.

        ↓ Меню




        ↓ Опрос

        Вы добавили сайт в закладки?
        Да
        Нет


        Популярное