.
Авторизация | Регистрация

bitok.xyz

» » Миссис Флетчер / Mrs. Fletcher (2019) WEBRip [H.264 / 1080p-LQ] (сезон 1, серии 1 из 8) JimmyJ (обновляемая) [AD] торрент скачать бесплатно


    Миссис Флетчер / Mrs. Fletcher (2019) WEBRip [H.264 / 1080p-LQ] (сезон 1, серии 1 из 8) JimmyJ (обновляемая) [AD] торрент скачать бесплатно

    Дата: 31-10-2019, 05:00 | .torrent скачали: 0

    Миссис Флетчер / Mrs. Fletcher (2019) WEBRip [H.264 / 1080p-LQ] (сезон 1, серии 1 из 8) JimmyJ (обновляемая) [AD]Производство: США | Home Box Office (HBO)
    Жанр: комедия
    Режиссер: Джиллиан Робеспьер, Николь Холофсенер

    Актеры
    Кэтрин Хан, Джен Ричардс, Оуэн Тиг, Джексон Уайт, Кейси Уилсон, Рашад Эдвардс, Доменик Ломбардоззи, Кэти Кершо, Эрика Николь Лэнс, Брет Тэмпл

    Описание

    Ив Флетчер — мать-одиночка, чей единственный ребёнок отправился учиться в колледж. Ив решает оживить свою личную жизнь и придумывает себе сексуальное альтер эго. Неожиданно она обнаруживает, что мир скрывает в себе бесконечные возможности для эротических подвигов.

    Дата мировой премьеры: 27 октября 2019
    Дата российской премьеры: 28 октября 2019
    Релиз от: JimmyJ
    Продолжительность: ~00: 30: 00 серия
    Качество видео: WEBRip 1080p
    Перевод: Двуголосый любительский (JimmyJ)
    Реклама: присутствуют видео, аудио, текстовые вставки рекламы
    Видео: AVC/H.264, 1920х1080 (16: 9), ~7432 kbps
    Аудио: AC3, 2 ch, 384 Kbps
    General
    Unique ID : 38731789827375603618673485940563145452 (0x1D2378AC8B7BAD8612145C6811C472EC)
    Complete name : E: TorrentJimmyJMrs.Fletcher.S01.1080p.WEBRip.JimmyJMrs.Fletcher.S01E01.1080p.WEBRip.JimmyJ.mkv
    Format : Matroska
    Format version : Version 4
    File size : 1.73 GiB
    Duration : 31 min 42 s
    Overall bit rate : 7 818 kb/s
    Encoded date : UTC 2019-10-28 17: 40: 46
    Writing application : mkvmerge v38.0.0 (\'The Silent Type\') 64-bit
    Writing library : libebml v1.3.9 + libmatroska v1.5.2
    Video
    ID : 1
    Format : AVC
    Format/Info : Advanced Video Codec
    Format profile : High@L4
    Format settings : CABAC/4 Ref Frames
    Format settings, CABAC : Yes
    Format settings, Reference : 4 frames
    Codec ID : V_MPEG4/ISO/AVC
    Duration : 31 min 42 s
    Bit rate : 7 432 kb/s
    Width : 1 920 pixels
    Height : 1 080 pixels
    Display aspect ratio : 16: 9
    Frame rate mode : Constant
    Frame rate : 23.976 (24000/1001) FPS
    Color space : YUV
    Chroma subsampling : 4: 2: 0
    Bit depth : 8 bits
    Scan type : Progressive
    Bits/(Pixel*Frame) : 0.149
    Stream size : 1.65 GiB (95%)
    Language : English
    Default : Yes
    Forced : No
    Color range : Limited
    Color primaries : BT.709
    Transfer characteristics : BT.709
    Matrix coefficients : BT.709
    Audio
    ID : 2
    Format : AC-3
    Format/Info : Audio Coding 3
    Commercial name : Dolby Digital
    Codec ID : A_AC3
    Duration : 31 min 42 s
    Bit rate mode : Constant
    Bit rate : 384 kb/s
    Channel(s) : 2 channels
    Channel layout : L R
    Sampling rate : 48.0 kHz
    Frame rate : 31.250 FPS (1536 SPF)
    Compression mode : Lossy
    Stream size : 87.1 MiB (5%)
    Title : DVO JimmyJ
    Language : Russian
    Service kind : Complete Main
    Default : No
    Forced : No

    Скриншоты для ознакомления



    Все одноименные релизы в Клубе
    Время раздачи: 24/7 (до появления первых 3-5 скачавших)

    Онлайн видео Миссис Флетчер



    Миссис Флетчер/Mrs. Fletcher (2019) WEBRip [H.264/1080p-LQ] (сезон 1, серии 1 из 8) JimmyJ (обновляемая) [AD]
    Рейтинг →
     (голосов: 1, оценка 5/5, голосовать можно 1 раз )

    Другие торренты по теме:

  • Миссис Флетчер / Mrs. Fletcher (2019) WEBRip (сезон 1, серии 1 из 8) JimmyJ (обновляемая) [AD]
  • Миссис Флетчер / Mrs. Fletcher (2019) WEBRip [H.264 / 720p-LQ] (сезон 1, серии 1 из 8) JimmyJ (обновляемая) [AD]


    • Комментарии (0):

      Информация

      Информация

        Посетители, находящиеся в группе Гости, не могут оставлять комментарии в данной новости.

        ↓ Меню




        ↓ Опрос

        Вы добавили сайт в закладки?
        Да
        Нет


        Популярное