.
Авторизация | Регистрация

bitok.xyz

» » Невероятный мир глазами Энцо / The Art of Racing in the Rain (2019) BDRip [H.264 / 1080p] торрент скачать бесплатно


    Невероятный мир глазами Энцо / The Art of Racing in the Rain (2019) BDRip [H.264 / 1080p] торрент скачать бесплатно

    Дата: 1-11-2019, 05:00 | .torrent скачали: 0

    Невероятный мир глазами Энцо / The Art of Racing in the Rain (2019) BDRip [H.264 / 1080p]Производство: США/Fox 2000 Pictures, Original Film, Shifting Gears Productions
    Жанр: Драма, мелодрама, комедия, спорт
    Режиссер: Саймон Кёртис

    Актеры
    Майло Вентимилья, Аманда Сайфред, Кевин Костнер, Гэри Коул, Кэти Бейкер, Мартин Донован, Lily Dodsworth-Evans, Райан Кира Армстронг, Ал Сапиенца, Карен Холнесс

    Описание

    Для собаки по кличке Энцо жизнь — это гонка. Не важно, как ты ее проходишь — за рулем автомобиля или на четырех лапах, все равно тебя ждут крутые виражи, ямы-западни, опасные взлеты и падения. Они выбивают с трека даже самых сильных — это начинающий гонщик Дэнни и его пес Энцо знают наверняка. Каждому из них предстоит своя гонка, но оба понимают: победить не значит обогнать соперников. Победить — значит вернуться после поражения на трассу и пройти ее до самого финиша, какой бы скользкой ни была дорога.

    Рейтинг MPAA: PG (рекомендуется присутствие родителей)
    Дата мировой премьеры: 7 августа 2019
    Дата премьеры в России: 1 ноября 2019

    Релиз от: селезень
    Продолжительность: 01: 49: 22
    Качество видео: BDRip (1080p)
    Перевод: Дублированный (iTunes)
    Субтитры: Русские (forced, full), украинские (forced, full), английские (full, SDH)
    Видео: AVC/H.264, 1920x1038, ~16, 2 Mbps
    Аудио #1: AC3, 6 ch, 384 Kbps - Русский дублированный (iTunes)
    Аудио #2: AC3, 2 ch, 160 Kbps - Украинский дублированный (iTunes)
    Аудио #3: AC3, 6 ch, 640 Kbps - Английский (Оригинал)
    Общее
    Уникальный идентификатор : 196440230472236646211390365411177878578 (0x93C9032083B2A4559AE74FEA5D075432)
    Полное имя : D: NNMНевероятный мир глазами ЭнцоThe.Art.of.Racing.in.the.Rain.2019.BDRip.1080p.mkv
    Формат : Matroska
    Версия формата : Version 4
    Размер файла : 13, 2 Гбайт
    Продолжительность : 1 ч. 48 м.
    Общий поток : 17, 4 Мбит/сек
    Название фильма : The Art of Racing in the Rain 2019 from селезень
    Дата кодирования : UTC 2019-10-31 20: 41: 58
    Программа кодирования : mkvmerge v22.0.0 (\'At The End Of The World\') 64-bit
    Библиотека кодирования : libebml v1.3.5 + libmatroska v1.4.8
    Видео
    Идентификатор : 1
    Формат : AVC
    Формат/Информация : Advanced Video Codec
    Профиль формата : High@L4.1
    Настройки формата : CABAC/4 Ref Frames
    Параметр CABAC формата : Да
    Параметр RefFrames формата : 4 кадра
    Идентификатор кодека : V_MPEG4/ISO/AVC
    Продолжительность : 1 ч. 48 м.
    Битрейт : 16, 2 Мбит/сек
    Ширина : 1920 пикселей
    Высота : 1038 пикселей
    Соотношение сторон : 1, 85: 1
    Режим частоты кадров : Постоянный
    Частота кадров : 23, 976 (24000/1001) кадра/сек
    Цветовое пространство : YUV
    Субдискретизация насыщенности : 4: 2: 0
    Битовая глубина : 8 бит
    Тип развёртки : Прогрессивная
    Бит/(Пиксели*Кадры) : 0.339
    Размер потока : 12, 3 Гбайт (93%)
    Заголовок : iFT
    Библиотека кодирования : x264 core 155 r2867+74 66b5600 t_mod_Custom_2 8-bit@all X86_64
    Настройки программы : cabac=1/ref=4/deblock=1: -3: -3/analyse=0x3: 0x113/me=umh/subme=11/psy=1/fade_compensate=0.00/psy_rd=1.00: 0.00/mixed_ref=1/me_range=32/chroma_me=1/trellis=2/8x8dct=1/cqm=0/deadzone=21, 11/fast_pskip=0/chroma_qp_offset=-2/threads=32/lookahead_threads=5/sliced_threads=0/nr=0/decimate=0/interlaced=0/bluray_compat=0/constrained_intra=0/fgo=0/bframes=9/b_pyramid=2/b_adapt=2/b_bias=0/direct=3/weightb=1/open_gop=0/weightp=2/keyint=250/keyint_min=23/scenecut=40/intra_refresh=0/rc_lookahead=60/rc=crf/mbtree=0/crf=17.0000/qcomp=0.60/qpmin=0: 0: 0/qpmax=69: 69: 69/qpstep=4/vbv_maxrate=62500/vbv_bufsize=78125/crf_max=0.0/nal_hrd=none/filler=0/ip_ratio=1.30/pb_ratio=1.20/aq=3: 0.80/aq-sensitivity=10.00/aq-factor=1.00: 1.00: 1.00/aq2=0/aq3=0
    Язык : English
    Default : Да
    Forced : Нет
    Цветовой диапазон : Limited
    Основные цвета : BT.709
    Характеристики трансфера : BT.709
    Коэффициенты матрицы : BT.709
    Аудио #1
    Идентификатор : 2
    Формат : AC-3
    Формат/Информация : Audio Coding 3
    Коммерческое название : Dolby Digital
    Идентификатор кодека : A_AC3
    Продолжительность : 1 ч. 48 м.
    Вид битрейта : Постоянный
    Битрейт : 384 Кбит/сек
    Каналы : 6 каналов
    ChannelLayout : L R C LFE Ls Rs
    Частота : 48, 0 КГц
    Частота кадров : 31, 250 кадров/сек (1536 SPF)
    Битовая глубина : 16 бит
    Метод сжатия : С потерями
    Размер потока : 299 Мбайт (2%)
    Заголовок : iTunes
    Язык : Russian
    ServiceKind/String : Complete Main
    Default : Да
    Forced : Да
    Аудио #2
    Идентификатор : 3
    Формат : AC-3
    Формат/Информация : Audio Coding 3
    Коммерческое название : Dolby Digital
    Идентификатор кодека : A_AC3
    Продолжительность : 1 ч. 48 м.
    Вид битрейта : Постоянный
    Битрейт : 160 Кбит/сек
    Каналы : 2 канала
    ChannelLayout : L R
    Частота : 48, 0 КГц
    Частота кадров : 31, 250 кадров/сек (1536 SPF)
    Битовая глубина : 16 бит
    Метод сжатия : С потерями
    Размер потока : 125 Мбайт (1%)
    Заголовок : iTunes
    Язык : Ukrainian
    ServiceKind/String : Complete Main
    Default : Нет
    Forced : Нет
    Аудио #3
    Идентификатор : 4
    Формат : AC-3
    Формат/Информация : Audio Coding 3
    Коммерческое название : Dolby Digital
    Идентификатор кодека : A_AC3
    Продолжительность : 1 ч. 48 м.
    Вид битрейта : Постоянный
    Битрейт : 640 Кбит/сек
    Каналы : 6 каналов
    ChannelLayout : L R C LFE Ls Rs
    Частота : 48, 0 КГц
    Частота кадров : 31, 250 кадров/сек (1536 SPF)
    Битовая глубина : 16 бит
    Метод сжатия : С потерями
    Размер потока : 498 Мбайт (4%)
    Заголовок : Original
    Язык : English
    ServiceKind/String : Complete Main
    Default : Нет
    Forced : Нет
    Текст #1
    Идентификатор : 5
    Формат : UTF-8
    Идентификатор кодека : S_TEXT/UTF8
    Идентификатор кодека/Информация : UTF-8 Plain Text
    Продолжительность : 1 ч. 44 м.
    Битрейт : 0 бит/сек
    ElementCount : 6
    Размер потока : 289 байт (0%)
    Заголовок : Forced
    Язык : Russian
    Default : Да
    Forced : Да
    Текст #2
    Идентификатор : 6
    Формат : UTF-8
    Идентификатор кодека : S_TEXT/UTF8
    Идентификатор кодека/Информация : UTF-8 Plain Text
    Продолжительность : 1 ч. 48 м.
    Битрейт : 96 бит/сек
    ElementCount : 1402
    Размер потока : 76, 5 Кбайт (0%)
    Заголовок : Full
    Язык : Russian
    Default : Нет
    Forced : Нет
    Текст #3
    Идентификатор : 7
    Формат : UTF-8
    Идентификатор кодека : S_TEXT/UTF8
    Идентификатор кодека/Информация : UTF-8 Plain Text
    Продолжительность : 1 ч. 28 м.
    Битрейт : 0 бит/сек
    ElementCount : 4
    Размер потока : 177 байт (0%)
    Заголовок : Forced
    Язык : Ukrainian
    Default : Нет
    Forced : Нет
    Текст #4
    Идентификатор : 8
    Формат : UTF-8
    Идентификатор кодека : S_TEXT/UTF8
    Идентификатор кодека/Информация : UTF-8 Plain Text
    Продолжительность : 1 ч. 48 м.
    Битрейт : 98 бит/сек
    ElementCount : 1402
    Размер потока : 78, 3 Кбайт (0%)
    Заголовок : Full
    Язык : Ukrainian
    Default : Нет
    Forced : Нет
    Текст #5
    Идентификатор : 9
    Формат : UTF-8
    Идентификатор кодека : S_TEXT/UTF8
    Идентификатор кодека/Информация : UTF-8 Plain Text
    Продолжительность : 1 ч. 48 м.
    Битрейт : 64 бит/сек
    ElementCount : 1682
    Размер потока : 51, 3 Кбайт (0%)
    Заголовок : Full
    Язык : English
    Default : Нет
    Forced : Нет
    Текст #6
    Идентификатор : 10
    Формат : UTF-8
    Идентификатор кодека : S_TEXT/UTF8
    Идентификатор кодека/Информация : UTF-8 Plain Text
    Продолжительность : 1 ч. 48 м.
    Битрейт : 71 бит/сек
    ElementCount : 1921
    Размер потока : 56, 8 Кбайт (0%)
    Заголовок : SDH
    Язык : English
    Default : Нет
    Forced : Нет
    Меню
    00: 00: 00.000 : en: Chapter 01
    00: 04: 51.583 : en: Chapter 02
    00: 10: 34.884 : en: Chapter 03
    00: 13: 59.589 : en: Chapter 04
    00: 17: 26.712 : en: Chapter 05
    00: 20: 54.920 : en: Chapter 06
    00: 26: 08.734 : en: Chapter 07
    00: 31: 05.530 : en: Chapter 08
    00: 36: 22.680 : en: Chapter 09
    00: 39: 37.417 : en: Chapter 10
    00: 43: 47.291 : en: Chapter 11
    00: 48: 57.143 : en: Chapter 12
    00: 54: 02.739 : en: Chapter 13
    00: 59: 17.429 : en: Chapter 14
    01: 03: 59.127 : en: Chapter 15
    01: 07: 27.502 : en: Chapter 16
    01: 10: 49.078 : en: Chapter 17
    01: 14: 47.858 : en: Chapter 18
    01: 18: 46.513 : en: Chapter 19
    01: 25: 06.852 : en: Chapter 20
    01: 28: 34.601 : en: Chapter 21
    01: 32: 43.767 : en: Chapter 22
    01: 36: 29.951 : en: Chapter 23
    01: 41: 27.540 : en: Chapter 24

    Скриншоты для ознакомления



    Все одноименные релизы в Клубе Время раздачи: 24/7 (до появления первых 3-5 скачавших)

    Онлайн видео Невероятный мир глазами Энцо



    Невероятный мир глазами Энцо/The Art of Racing in the Rain (2019) BDRip [H.264/1080p]
    Рейтинг →
     (голосов: 1, оценка 3/5, голосовать можно 1 раз )

    Другие торренты по теме:



      Комментарии (0):

      Информация

      Информация

        Посетители, находящиеся в группе Гости, не могут оставлять комментарии в данной новости.

        ↓ Меню




        ↓ Опрос

        Вы добавили сайт в закладки?
        Да
        Нет


        Популярное