.
Авторизация | Регистрация

bitok.xyz

» » Операция «Колибри» / The Hummingbird Project (2018) BDRip торрент скачать бесплатно


    Операция «Колибри» / The Hummingbird Project (2018) BDRip торрент скачать бесплатно

    Дата: 1-11-2019, 05:00 | .torrent скачали: 0

    Операция «Колибри» / The Hummingbird Project (2018) BDRipПроизводство: Бельгия, Канада/Item 7, Belga Productions
    Жанр: Триллер
    Режиссер: Ким Нгуйен

    Актеры
    Джесси Айзенберг, Александр Скарсгард, Сальма Хайек, Майкл Мэндо, Йохан Хелденберг, Аиша Исса, Марк Слэк, Сара Голдберг, Фрэнк Скорпион, Кваси Сонгуи

    Описание

    Двоюродные братья Винсент и Антон живут в мире высокочастотного трейдинга, где каждая миллисекунда может стоить миллиарды. Они решаются реализовать давно задуманный проект. Казалось бы, все продумано до мелочей и шансы на успех велики как никогда. Однако на пути братьев встает их бывший босс Эва Торрес — беспринципный злой гений, ставшая их заклятым врагом. Ставки высоки, проигравший теряет всё или, наоборот, приобретает нечто большее, поистине бесценное.

    Возраст: 16+ (зрителям, достигшим 16 лет)
    Рейтинг MPAA: R (лицам до 17 лет обязательно присутствие взрослого)
    Дата мировой премьеры: 8 сентября 2018
    Дата российской премьеры: 3 октября 2019
    Продолжительность: 01: 50: 37
    Качество видео: BDRip
    Перевод: Дублированный (iTunes)
    Субтитры: Отсутствуют
    Видео: XviD, 720x304, ~1498 Kbps
    Аудио: AC3, 6 ch, 384 Kbps
    Общее
    Полное имя : D: NNMОперацияThe.Hummingbird.Project.2018.BDRip.avi
    Формат : AVI
    Формат/Информация : Audio Video Interleave
    Размер файла : 1, 46 Гбайт
    Продолжительность : 1 ч. 50 м.
    Общий поток : 1891 Кбит/сек
    Программа кодирования : VirtualDubMod 1.5.10.3 |www.virtualdub-fr.org|| (build 2550/release)
    Библиотека кодирования : VirtualDubMod build 2550/release
    Видео
    Идентификатор : 0
    Формат : MPEG-4 Visual
    Профиль формата : Advanced Simple@L5
    Настройки формата : BVOP1/Custom Matrix
    Параметр BVOP формата : 1
    Параметр QPel формата : Нет
    Параметр GMC формата : Без точки перехода
    Параметр матрицы формата : Выборочная
    Идентификатор кодека : XVID
    Идентификатор кодека/Подсказка : XviD
    Продолжительность : 1 ч. 50 м.
    Битрейт : 1498 Кбит/сек
    Ширина : 720 пикселей
    Высота : 304 пикселя
    Соотношение сторон : 2, 35: 1
    Частота кадров : 23, 976 (24000/1001) кадра/сек
    Цветовое пространство : YUV
    Субдискретизация насыщенности : 4: 2: 0
    Битовая глубина : 8 бит
    Тип развёртки : Прогрессивная
    Метод сжатия : С потерями
    Бит/(Пиксели*Кадры) : 0.285
    Размер потока : 1, 16 Гбайт (79%)
    Библиотека кодирования : XviD 73
    Аудио
    Идентификатор : 1
    Формат : AC-3
    Формат/Информация : Audio Coding 3
    Коммерческое название : Dolby Digital
    Идентификатор кодека : 2000
    Продолжительность : 1 ч. 50 м.
    Вид битрейта : Постоянный
    Битрейт : 384 Кбит/сек
    Каналы : 6 каналов
    ChannelLayout : L R C LFE Ls Rs
    Частота : 48, 0 КГц
    Частота кадров : 31, 250 кадров/сек (1536 SPF)
    Битовая глубина : 16 бит
    Метод сжатия : С потерями
    Размер потока : 304 Мбайт (20%)
    Выравнивание : Разделение по промежуткам
    Продолжительность промежутка : 42 мс. (1, 00 видеокадр)
    Время предзагрузки промежутка : 500 мс.
    ServiceKind/String : Complete Main

    Скриншоты для ознакомления



    Все одноименные релизы в Клубе Время раздачи: 24/7 (до появления первых 3-5 скачавших)

    Онлайн видео Операция «Колибри»



    Операция «Колибри»/The Hummingbird Project (2018) BDRip
    Рейтинг →
     (голосов: 1, оценка 4/5, голосовать можно 1 раз )

    Другие торренты по теме:

  • Операция «Колибри» / The Hummingbird Project (2018) WEB-DLRip [MVO] [AD]
  • Операция «Колибри» / The Hummingbird Project (2018) WEB-DLRip [H.264 / 1080p-LQ] [MVO] [AD]
  • Операция «Колибри» / The Hummingbird Project (2018) WEB-DL [1080p] ATV [MVO]
  • Операция «Колибри» / The Hummingbird Project (2018) BDRip [MVO]
  • Операция «Колибри» / The Hummingbird Project (2018) BDRemux [H.264 / 1080p] [MVO]
  • Операция «Колибри» / The Hummingbird Project (2018) BDRip [H.264 / 1080p] [MVO] [PR]
  • Операция «Колибри» / The Hummingbird Project (2018) BDRip [720p] ATV
  • Операция «Колибри» / The Hummingbird Project (2018) BDRip [1080p] ATV


    • Комментарии (0):

      Информация

      Информация

        Посетители, находящиеся в группе Гости, не могут оставлять комментарии в данной новости.

        ↓ Меню




        ↓ Опрос

        Вы добавили сайт в закладки?
        Да
        Нет


        Популярное