.
Авторизация | Регистрация

bitok.xyz

» » Операция «Колибри» / The Hummingbird Project (2018) BDRemux [H.264 / 1080p] торрент скачать бесплатно


    Операция «Колибри» / The Hummingbird Project (2018) BDRemux [H.264 / 1080p] торрент скачать бесплатно

    Дата: 1-11-2019, 05:00 | .torrent скачали: 0

    Операция «Колибри» / The Hummingbird Project (2018) BDRemux [H.264 / 1080p]Производство: Бельгия, Канада/Item 7, Belga Productions
    Жанр: Триллер
    Режиссер: Ким Нгуйен

    Актеры
    Джесси Айзенберг, Александр Скарсгард, Сальма Хайек, Майкл Мэндо, Йохан Хелденберг, Аиша Исса, Марк Слэк, Сара Голдберг, Фрэнк Скорпион, Кваси Сонгуи

    Описание

    Двоюродные братья Винсент и Антон живут в мире высокочастотного трейдинга, где каждая миллисекунда может стоить миллиарды. Они решаются реализовать давно задуманный проект. Казалось бы, все продумано до мелочей и шансы на успех велики как никогда. Однако на пути братьев встает их бывший босс Эва Торрес — беспринципный злой гений, ставшая их заклятым врагом. Ставки высоки, проигравший теряет всё или, наоборот, приобретает нечто большее, поистине бесценное.

    Возраст: 16+ (зрителям, достигшим 16 лет)
    Рейтинг MPAA: R (лицам до 17 лет обязательно присутствие взрослого)
    Дата мировой премьеры: 8 сентября 2018
    Дата российской премьеры: 3 октября 2019
    Релиз от: селезень
    Продолжительность: 01: 50: 37
    Качество видео: BDRemux (1080p)
    Перевод: Дублированный, 2 х профессиональный многоголосый
    Субтитры: Русские (full), английские (full)
    Видео: AVC/H.264, 1920x1080, ~21, 9 Mbps
    Аудио #1: AC3, 6 ch, 384 Kbps - Русский дублированный (iTunes)
    Аудио #2: AC3, 6 ch, 384 Kbps - Русский многоголосый (СВ Студия (ненорматив))
    Аудио #3: AC3, 2 ch, 192 Kbps - Русский многоголосый (HDRezka Studio)
    Аудио #4: DTS-HD MA, 6 ch, 1882 Kbps - Английский (Оригинал)
    Общее
    Уникальный идентификатор : 174696088516995226649328492151141392489 (0x836D3E286ADA0E3D479A02F3450D6069)
    Полное имя : D: NNMОперацияThe.Hummingbird.Project.2018.D.MVO.BDRemux.1080p.mkv
    Формат : Matroska
    Версия формата : Version 4
    Размер файла : 19, 1 Гбайт
    Продолжительность : 1 ч. 50 м.
    Режим общего битрейта : Переменный
    Общий поток : 24, 7 Мбит/сек
    Название фильма : The Hummingbird Project 2018 from селезень
    Дата кодирования : UTC 2019-10-31 19: 40: 59
    Программа кодирования : mkvmerge v22.0.0 (\'At The End Of The World\') 64-bit
    Библиотека кодирования : libebml v1.3.5 + libmatroska v1.4.8
    Видео
    Идентификатор : 1
    Формат : AVC
    Формат/Информация : Advanced Video Codec
    Профиль формата : High@L4.1
    Настройки формата : CABAC/4 Ref Frames
    Параметр CABAC формата : Да
    Параметр RefFrames формата : 4 кадра
    Идентификатор кодека : V_MPEG4/ISO/AVC
    Продолжительность : 1 ч. 50 м.
    Вид битрейта : Переменный
    Битрейт : 21, 9 Мбит/сек
    Максимальный битрейт : 35, 0 Мбит/сек
    Ширина : 1920 пикселей
    Высота : 1080 пикселей
    Соотношение сторон : 16: 9
    Режим частоты кадров : Постоянный
    Частота кадров : 23, 976 (24000/1001) кадра/сек
    Цветовое пространство : YUV
    Субдискретизация насыщенности : 4: 2: 0
    Битовая глубина : 8 бит
    Тип развёртки : Прогрессивная
    Бит/(Пиксели*Кадры) : 0.440
    Размер потока : 16, 9 Гбайт (88%)
    Язык : English
    Default : Да
    Forced : Нет
    Аудио #1
    Идентификатор : 2
    Формат : AC-3
    Формат/Информация : Audio Coding 3
    Коммерческое название : Dolby Digital
    Идентификатор кодека : A_AC3
    Продолжительность : 1 ч. 50 м.
    Вид битрейта : Постоянный
    Битрейт : 384 Кбит/сек
    Каналы : 6 каналов
    ChannelLayout : L R C LFE Ls Rs
    Частота : 48, 0 КГц
    Частота кадров : 31, 250 кадров/сек (1536 SPF)
    Битовая глубина : 16 бит
    Метод сжатия : С потерями
    Размер потока : 304 Мбайт (2%)
    Заголовок : iTunes
    Язык : Russian
    ServiceKind/String : Complete Main
    Default : Да
    Forced : Да
    Аудио #2
    Идентификатор : 3
    Формат : AC-3
    Формат/Информация : Audio Coding 3
    Коммерческое название : Dolby Digital
    Идентификатор кодека : A_AC3
    Продолжительность : 1 ч. 50 м.
    Вид битрейта : Постоянный
    Битрейт : 384 Кбит/сек
    Каналы : 6 каналов
    ChannelLayout : L R C LFE Ls Rs
    Частота : 48, 0 КГц
    Частота кадров : 31, 250 кадров/сек (1536 SPF)
    Битовая глубина : 16 бит
    Метод сжатия : С потерями
    Размер потока : 304 Мбайт (2%)
    Заголовок : MVO СВ Студия
    Язык : Russian
    ServiceKind/String : Complete Main
    Default : Нет
    Forced : Нет
    Аудио #3
    Идентификатор : 4
    Формат : AC-3
    Формат/Информация : Audio Coding 3
    Коммерческое название : Dolby Digital
    Идентификатор кодека : A_AC3
    Продолжительность : 1 ч. 50 м.
    Вид битрейта : Постоянный
    Битрейт : 192 Кбит/сек
    Каналы : 2 канала
    ChannelLayout : L R
    Частота : 48, 0 КГц
    Частота кадров : 31, 250 кадров/сек (1536 SPF)
    Битовая глубина : 16 бит
    Метод сжатия : С потерями
    Размер потока : 152 Мбайт (1%)
    Заголовок : MVO HDRezka Studio
    Язык : Russian
    ServiceKind/String : Complete Main
    Default : Нет
    Forced : Нет
    Аудио #4
    Идентификатор : 5
    Формат : DTS XLL
    Формат/Информация : Digital Theater Systems
    Коммерческое название : DTS-HD Master Audio
    Идентификатор кодека : A_DTS
    Продолжительность : 1 ч. 50 м.
    Вид битрейта : Переменный
    Битрейт : 1882 Кбит/сек
    Каналы : 6 каналов
    ChannelLayout : C L R Ls Rs LFE
    Частота : 48, 0 КГц
    Частота кадров : 93, 750 кадра/сек (512 SPF)
    Битовая глубина : 24 бит
    Метод сжатия : Без потерь
    Размер потока : 1, 45 Гбайт (8%)
    Заголовок : Original
    Язык : English
    Default : Нет
    Forced : Нет
    Текст #1
    Идентификатор : 6
    Формат : UTF-8
    Идентификатор кодека : S_TEXT/UTF8
    Идентификатор кодека/Информация : UTF-8 Plain Text
    Продолжительность : 1 ч. 42 м.
    Битрейт : 132 бит/сек
    ElementCount : 1927
    Размер потока : 99, 5 Кбайт (0%)
    Заголовок : Full
    Язык : Russian
    Default : Нет
    Forced : Нет
    Текст #2
    Идентификатор : 7
    Формат : UTF-8
    Идентификатор кодека : S_TEXT/UTF8
    Идентификатор кодека/Информация : UTF-8 Plain Text
    Продолжительность : 1 ч. 45 м.
    Битрейт : 83 бит/сек
    ElementCount : 2019
    Размер потока : 64, 0 Кбайт (0%)
    Заголовок : Full
    Язык : English
    Default : Нет
    Forced : Нет
    Меню
    00: 00: 00.000 : en: Chapter 01
    00: 09: 59.265 : en: Chapter 02
    00: 20: 45.703 : en: Chapter 03
    00: 30: 31.329 : en: Chapter 04
    00: 40: 32.555 : en: Chapter 05
    00: 50: 20.684 : en: Chapter 06
    01: 00: 52.357 : en: Chapter 07
    01: 10: 05.326 : en: Chapter 08
    01: 19: 56.333 : en: Chapter 09
    01: 29: 57.892 : en: Chapter 10
    01: 39: 37.555 : en: Chapter 11

    Скриншоты для ознакомления



    Все одноименные релизы в Клубе Время раздачи: 24/7 (до появления первых 3-5 скачавших)

    Онлайн видео Операция «Колибри»



    Операция «Колибри»/The Hummingbird Project (2018) BDRemux [H.264/1080p]
    Рейтинг →
     (голосов: 1, оценка 3/5, голосовать можно 1 раз )

    Другие торренты по теме:

  • Операция «Колибри» / The Hummingbird Project (2018) WEB-DLRip [MVO] [AD]
  • Операция «Колибри» / The Hummingbird Project (2018) WEB-DLRip [H.264 / 1080p-LQ] [MVO] [AD]
  • Операция «Колибри» / The Hummingbird Project (2018) WEB-DL [1080p] ATV [MVO]
  • Операция «Колибри» / The Hummingbird Project (2018) BDRip [MVO]
  • Операция «Колибри» / The Hummingbird Project (2018) BDRemux [H.264 / 1080p] [MVO]
  • Операция «Колибри» / The Hummingbird Project (2018) BDRip [H.264 / 1080p] [MVO] [PR]
  • Операция «Колибри» / The Hummingbird Project (2018) BDRip [720p] ATV
  • Операция «Колибри» / The Hummingbird Project (2018) BDRip [1080p] ATV


    • Комментарии (0):

      Информация

      Информация

        Посетители, находящиеся в группе Гости, не могут оставлять комментарии в данной новости.

        ↓ Меню




        ↓ Опрос

        Вы добавили сайт в закладки?
        Да
        Нет


        Популярное