.
Авторизация | Регистрация

bitok.xyz

» » Гив ми либерти / Give Me Liberty (2019) WEBRip [MVO] [AD] торрент скачать бесплатно


    Гив ми либерти / Give Me Liberty (2019) WEBRip [MVO] [AD] торрент скачать бесплатно

    Дата: 1-11-2019, 05:00 | .torrent скачали: 0

    Гив ми либерти / Give Me Liberty (2019) WEBRip [MVO] [AD]Производство: США/Give Me Liberty, Flux Capacitor Studios, The Space Program
    Жанр: Комедия
    Режиссер: Кирилл Михановский

    Актеры
    Лорен Спенсер, Крис Галуст, Максим Стоянов, Дарья Екамасова, Зоя Махлина, Дороти Рейнольдс, Шерил Симс-Дэниэлс, Стив Волски, Мишель Каспар, Бен Дерфель

    Описание

    История о трех поколениях русской эмиграции, о мелких аферистах и обаятельных маргиналах, которые оказываются в одном микроавтобусе по дороге на шумные поминки.

    Дата мировой премьеры: 24 января 2019
    Дата премьеры в России: 1 августа 2019

    Продолжительность: 01: 50: 18
    Качество видео: WEBRip
    Перевод: Многоголосый закадровый, любительский (MUZOBOZ)
    Субтитры: Русские (хардсаб)
    Реклама: Присутствует баннер.
    Видео: XviD, 720x400, ~2222 Kbps
    Аудио: AC-3, 2 ch, 384 Kbps
    Общее
    Полное имя : D: NNMГив ми либертиGive.Me.Liberty.2019.WEBRip.avi
    Формат : AVI
    Формат/Информация : Audio Video Interleave
    Профиль формата : OpenDML
    Размер файла : 2, 02 Гбайт
    Продолжительность : 1 ч. 50 м.
    Общий поток : 2617 Кбит/сек
    Видео
    Идентификатор : 0
    Формат : MPEG-4 Visual
    Профиль формата : Advanced Simple@L5
    Настройки формата : BVOP2/Custom Matrix
    Параметр BVOP формата : 2
    Параметр QPel формата : Нет
    Параметр GMC формата : Без точки перехода
    Параметр матрицы формата : Выборочная
    Идентификатор кодека : XVID
    Идентификатор кодека/Подсказка : XviD
    Продолжительность : 1 ч. 50 м.
    Битрейт : 2222 Кбит/сек
    Ширина : 720 пикселей
    Высота : 400 пикселей
    Соотношение сторон : 16: 9
    Частота кадров : 23, 976 (24000/1001) кадра/сек
    Цветовое пространство : YUV
    Субдискретизация насыщенности : 4: 2: 0
    Битовая глубина : 8 бит
    Тип развёртки : Прогрессивная
    Метод сжатия : С потерями
    Бит/(Пиксели*Кадры) : 0.322
    Размер потока : 1, 71 Гбайт (85%)
    Библиотека кодирования : XviD 1.2.1 (UTC 2008-12-04)
    Аудио
    Идентификатор : 1
    Формат : AC-3
    Формат/Информация : Audio Coding 3
    Коммерческое название : Dolby Digital
    Идентификатор кодека : 2000
    Продолжительность : 1 ч. 50 м.
    Вид битрейта : Постоянный
    Битрейт : 384 Кбит/сек
    Каналы : 2 канала
    ChannelLayout : L R
    Частота : 48, 0 КГц
    Частота кадров : 31, 250 кадров/сек (1536 SPF)
    Битовая глубина : 16 бит
    Метод сжатия : С потерями
    Размер потока : 303 Мбайт (15%)
    Выравнивание : Соединение по промежуткам
    Продолжительность промежутка : 32 мс. (0, 77 видеокадр)
    ServiceKind/String : Complete Main

    Скриншоты для ознакомления



    Все одноименные релизы в Клубе Время раздачи: 24/7 (до появления первых 3-5 скачавших)

    Онлайн видео Гив ми либерти



    Гив ми либерти/Give Me Liberty (2019) WEBRip [MVO] [AD]
    Рейтинг →
     (голосов: 1, оценка 4/5, голосовать можно 1 раз )

    Другие торренты по теме:

  • Гив ми либерти / Give Me Liberty (2019) WEBRip [H.264 / 1080p-LQ] [MVO] [AD]


    • Комментарии (0):

      Информация

      Информация

        Посетители, находящиеся в группе Гости, не могут оставлять комментарии в данной новости.

        ↓ Меню




        ↓ Опрос

        Вы добавили сайт в закладки?
        Да
        Нет


        Популярное