.
Авторизация | Регистрация

bitok.xyz

» » Гив ми либерти / Give Me Liberty (2019) WEBRip [H.264 / 1080p-LQ] [MVO] [AD] торрент скачать бесплатно


    Гив ми либерти / Give Me Liberty (2019) WEBRip [H.264 / 1080p-LQ] [MVO] [AD] торрент скачать бесплатно

    Дата: 1-11-2019, 05:00 | .torrent скачали: 0

    Гив ми либерти / Give Me Liberty (2019) WEBRip [H.264 / 1080p-LQ] [MVO] [AD]Производство: США/Give Me Liberty, Flux Capacitor Studios, The Space Program
    Жанр: Комедия
    Режиссер: Кирилл Михановский

    Актеры
    Лорен Спенсер, Крис Галуст, Максим Стоянов, Дарья Екамасова, Зоя Махлина, Дороти Рейнольдс, Шерил Симс-Дэниэлс, Стив Волски, Мишель Каспар, Бен Дерфель

    Описание

    История о трех поколениях русской эмиграции, о мелких аферистах и обаятельных маргиналах, которые оказываются в одном микроавтобусе по дороге на шумные поминки.

    Дата мировой премьеры: 24 января 2019
    Дата премьеры в России: 1 августа 2019

    Продолжительность: 01: 50: 18
    Качество видео: WEBRip
    Перевод: Многоголосый закадровый, любительский (MUZOBOZ)
    Субтитры: Русские (хардсаб)
    Реклама: Присутствует баннер.
    Видео: AVC/H.264, 1920x1080, ~5986 Kbps
    Аудио: AC3, 2 ch, 384 Kbps
    Общее
    Полное имя : D: NNMГив ми либертиGive.Me.Liberty.2019.WEBRip.1080p-LQ.mkv
    Формат : Matroska
    Версия формата : Version 2
    Размер файла : 5, 01 Гбайт
    Продолжительность : 1 ч. 50 м.
    Режим общего битрейта : Переменный
    Общий поток : 6499 Кбит/сек
    Программа кодирования : libmatroska 1.4.1
    Библиотека кодирования : SolveigMM Matroska Muxer Version 1.0.1502.31
    Видео
    Идентификатор : 1
    Формат : AVC
    Формат/Информация : Advanced Video Codec
    Профиль формата : High@L4.1
    Настройки формата : CABAC/4 Ref Frames
    Параметр CABAC формата : Да
    Параметр RefFrames формата : 4 кадра
    Идентификатор кодека : V_MPEG4/ISO/AVC
    Продолжительность : 1 ч. 50 м.
    Вид битрейта : Переменный
    Битрейт : 5986 Кбит/сек
    Номинальный битрейт : 6900 Кбит/сек
    Максимальный битрейт : 6900 Кбит/сек
    Ширина : 1920 пикселей
    Высота : 1080 пикселей
    Соотношение сторон : 16: 9
    Режим частоты кадров : Постоянный
    Частота кадров : 23, 976 (24000/1001) кадра/сек
    Стандарт вещания : Component
    Цветовое пространство : YUV
    Субдискретизация насыщенности : 4: 2: 0
    Битовая глубина : 8 бит
    Тип развёртки : Прогрессивная
    Бит/(Пиксели*Кадры) : 0.120
    Размер потока : 4, 61 Гбайт (92%)
    Default : Нет
    Forced : Нет
    Цветовой диапазон : Limited
    Основные цвета : BT.709
    Характеристики трансфера : BT.709
    Коэффициенты матрицы : BT.709
    Аудио
    Идентификатор : 2
    Формат : AC-3
    Формат/Информация : Audio Coding 3
    Коммерческое название : Dolby Digital
    Идентификатор кодека : A_AC3
    Продолжительность : 1 ч. 50 м.
    Вид битрейта : Постоянный
    Битрейт : 384 Кбит/сек
    Каналы : 2 канала
    ChannelLayout : M M
    Частота : 48, 0 КГц
    Частота кадров : 31, 250 кадров/сек (1536 SPF)
    Битовая глубина : 16 бит
    Метод сжатия : С потерями
    Размер потока : 303 Мбайт (6%)
    Язык : Russian
    ServiceKind/String : Complete Main
    Default : Нет
    Forced : Нет

    Скриншоты для ознакомления



    Все одноименные релизы в Клубе Время раздачи: 24/7 (до появления первых 3-5 скачавших)

    Онлайн видео Гив ми либерти



    Гив ми либерти/Give Me Liberty (2019) WEBRip [H.264/1080p-LQ] [MVO] [AD]
    Рейтинг →
     (голосов: 1, оценка 4/5, голосовать можно 1 раз )

    Другие торренты по теме:

  • Гив ми либерти / Give Me Liberty (2019) WEBRip [MVO] [AD]


    • Комментарии (0):

      Информация

      Информация

        Посетители, находящиеся в группе Гости, не могут оставлять комментарии в данной новости.

        ↓ Меню




        ↓ Опрос

        Вы добавили сайт в закладки?
        Да
        Нет


        Популярное