.
Авторизация | Регистрация

bitok.xyz

» » Честный человек / Lhomme fidele (2018) WEB-DLRip [H.265] [10-bit] торрент скачать бесплатно


    Честный человек / Lhomme fidele (2018) WEB-DLRip [H.265] [10-bit] торрент скачать бесплатно

    Дата: 1-11-2019, 05:00 | .torrent скачали: 0

    Честный человек / Lhomme fidele (2018) WEB-DLRip [H.265] [10-bit]Производство: Франция/Why Not Productions, Canal+, Ciné+
    Жанр: Комедия, мелодрама, драма
    Режиссер: Луи Гаррель

    Актеры
    Луи Гаррель, Летиция Каста, Лили-Роуз Депп, Джозеф Энджел, Диан Курсей, Владислав Галард, Бакари Сангаре, Кьяра Каррьер, Дали Бенссалах, Артур Игуаль

    Описание

    Абель — последний романтик Парижа: он полон решимости вновь завоевать Марианну, которая восемь лет назад предпочла ему лучшего друга Поля. Теперь, когда Поля не стало, Абелю уже ничто не помешает вернуть любовь его жизни… разве что ревнивый сын Марианны, да одна очаровательная, по уши влюбленная в Абеля девушка — кажется, в этой истории любви даже самые невинные создания вынашивают коварные планы.

    Возраст: 18+ (зрителям, достигшим 18 лет. запрещено для детей)
    Дата мировой премьеры: 9 сентября 2018
    Дата премьеры в России: 14 февраля 2019

    Продолжительность: 01: 11: 24
    Качество видео: WEB-DLRip
    Перевод: Профессиональный многоголосый (Кинопремьера HD)
    Субтитры: Отсутствуют
    Видео: HEVC/H.265, 1024x428, ~1955 Kbps
    Аудио 1: AC3, 2 ch, 160 Kbps - Русский
    Аудио 2: AC3, 2 ch, 160 Kbps - Французский
    Общее
    Уникальный идентификатор : 127140199210624247246712987951485153506 (0x5FA64FCA3A762167E7AE9DFECFDFF0E2)
    Полное имя : L\'Homme.Fidele.2018.WEB-DLRip.10bit.HEVC.mkv
    Формат : Matroska
    Версия формата : Version 4/Version 2
    Размер файла : 1, 17 Гбайт
    Продолжительность : 1 ч. 12 м.
    Общий поток : 2321 Кбит/сек
    Название фильма : Честный человек/L\'homme fidele/L\'homme fidèle (2018)
    Программа кодирования : XviD4PSP 8.0.90
    Библиотека кодирования : Lavf58.20.100
    ErrorDetectionType : Per level 1
    ENCODING_INFO : MATROSKA, WEBM MKV
    Видео
    Идентификатор : 1
    Формат : HEVC
    Формат/Информация : High Efficiency Video Coding
    Профиль формата : Main10@L4.1@High
    Идентификатор кодека : V_MPEGH/ISO/HEVC
    Продолжительность : 1 ч. 12 м.
    Битрейт : 1955 Кбит/сек
    Ширина : 1024 пикселя
    Высота : 428 пикселей
    Соотношение сторон : 2, 40: 1
    Режим частоты кадров : Постоянный
    Частота кадров : 25, 000 кадров/сек
    Цветовое пространство : YUV
    Субдискретизация насыщенности : 4: 2: 0
    Битовая глубина : 10 бит
    Бит/(Пиксели*Кадры) : 0.178
    Размер потока : 1010 Мбайт (84%)
    Язык : French
    Default : Да
    Forced : Нет
    Цветовой диапазон : Limited
    Основные цвета : BT.709
    Характеристики трансфера : BT.709
    Коэффициенты матрицы : BT.709
    ENCODING_INFO : H264 HEVC NVENC VBR 2000kbps HQ
    Аудио #1
    Идентификатор : 2
    Формат : AC-3
    Формат/Информация : Audio Coding 3
    Параметр Endianness формата : Big
    Идентификатор кодека : A_AC3
    Продолжительность : 1 ч. 12 м.
    Вид битрейта : Постоянный
    Битрейт : 160 Кбит/сек
    Каналы : 2 канала
    Расположение каналов : Front: L R
    Частота : 48, 0 КГц
    Частота кадров : 31, 250 кадров/сек (1536 SPF)
    Битовая глубина : 16 бит
    Метод сжатия : С потерями
    Размер потока : 82, 7 Мбайт (7%)
    Заголовок : Профессиональный многоголосый (Кинопремьера HD)
    Язык : Russian
    ServiceKind/String : Complete Main
    Default : Да
    Forced : Нет
    ENCODING_INFO : AC3 AC3 CBR 160kbps
    Аудио #2
    Идентификатор : 3
    Формат : AC-3
    Формат/Информация : Audio Coding 3
    Параметр Endianness формата : Big
    Идентификатор кодека : A_AC3
    Продолжительность : 1 ч. 12 м.
    Вид битрейта : Постоянный
    Битрейт : 160 Кбит/сек
    Каналы : 2 канала
    Расположение каналов : Front: L R
    Частота : 48, 0 КГц
    Частота кадров : 31, 250 кадров/сек (1536 SPF)
    Битовая глубина : 16 бит
    Метод сжатия : С потерями
    Размер потока : 82, 7 Мбайт (7%)
    Язык : French
    ServiceKind/String : Complete Main
    Default : Нет
    Forced : Нет
    ENCODING_INFO : AC3 AC3 CBR 160kbps
    Меню
    00: 00: 00.000 : : Chapitre 01
    00: 07: 00.000 : : Chapitre 02
    00: 14: 00.000 : : Chapitre 03
    00: 21: 00.000 : : Chapitre 04
    00: 28: 00.000 : : Chapitre 05
    00: 35: 00.000 : : Chapitre 06
    00: 42: 00.000 : : Chapitre 07
    00: 49: 00.000 : : Chapitre 08
    00: 56: 00.000 : : Chapitre 09
    01: 03: 00.000 : : Chapitre 10

    Скриншоты для ознакомления



    Все одноименные релизы в Клубе
    Время раздачи: 24/7 (до появления первых 3-5 скачавших)

    Онлайн видео Честный человек



    Честный человек/Lhomme fidele (2018) WEB-DLRip [H.265] [10-bit]
    Рейтинг →
     (голосов: 1, оценка 4/5, голосовать можно 1 раз )

    Другие торренты по теме:

  • Честный человек / Lhomme fidele (2018) WEB-DLRip [MVO] [AD]


    • Комментарии (0):

      Информация

      Информация

        Посетители, находящиеся в группе Гости, не могут оставлять комментарии в данной новости.

        ↓ Меню




        ↓ Опрос

        Вы добавили сайт в закладки?
        Да
        Нет


        Популярное