.
Авторизация | Регистрация

bitok.xyz

» » Прощание / The Farewell (2019) WEBRip [MVO] [AD] торрент скачать бесплатно


    Прощание / The Farewell (2019) WEBRip [MVO] [AD] торрент скачать бесплатно

    Дата: 1-11-2019, 05:00 | .torrent скачали: 0

    Прощание / The Farewell (2019) WEBRip [MVO] [AD]Производство: США/Big Beach Films, Depth of Field, Kindred Spirit
    Жанр: Драма, комедия
    Режиссер: Лулу Ванг

    Актеры
    Аквафина, Чжоу Шучжэнь, Икс Майо, Лу Хун, Линь Хун, Ма Ци, Диана Линь, Ян Сюэцзянь, Бекка Халил, Цзян Юнбо

    Описание

    Начинающая писательница китайского происхождения живёт в Бруклине, но очень привязана к оставшейся на родине бабушке. Внезапно выясняется, что бабушка больна, жить ей осталось недолго, но расстраивать её не хотят и о скорой смерти молчат. А чтобы все члены большой семьи успели попрощаться с умирающей, ей скажут, что все съезжаются на свадьбу внука, который на самом деле жениться не рвётся.

    Возраст: 16+ (зрителям, достигшим 16 лет)
    Рейтинг MPAA: PG (рекомендуется присутствие родителей)
    Дата мировой премьеры: 25 января 2019
    Дата премьеры в России: 17 октября 2019

    Продолжительность: 01: 39: 28
    Качество видео: WEBRip
    Перевод: Многоголосый закадровый, любительский (MUZOBOZ)
    Субтитры: Отсутствуют
    Реклама: Присутствует баннер.
    Видео: XviD, 720x304, ~2157 Kbps
    Аудио: AC-3, 2 ch, 192 Kbps
    Общее
    Полное имя : D: NNMПрощаниеThe.Farewell.2019.WEBRip.avi
    Формат : AVI
    Формат/Информация : Audio Video Interleave
    Размер файла : 1, 64 Гбайт
    Продолжительность : 1 ч. 39 м.
    Общий поток : 2360 Кбит/сек
    Программа кодирования : VirtualDubMod 1.5.10.3 |www.virtualdub-fr.org|| (build 2550/release)
    Библиотека кодирования : VirtualDubMod build 2550/release
    Видео
    Идентификатор : 0
    Формат : MPEG-4 Visual
    Профиль формата : Advanced Simple@L5
    Настройки формата : BVOP1/Custom Matrix
    Параметр BVOP формата : 1
    Параметр QPel формата : Нет
    Параметр GMC формата : Без точки перехода
    Параметр матрицы формата : Выборочная
    Идентификатор кодека : XVID
    Идентификатор кодека/Подсказка : XviD
    Продолжительность : 1 ч. 39 м.
    Битрейт : 2157 Кбит/сек
    Ширина : 720 пикселей
    Высота : 304 пикселя
    Соотношение сторон : 2, 35: 1
    Частота кадров : 29, 970 (30000/1001) кадров/сек
    Цветовое пространство : YUV
    Субдискретизация насыщенности : 4: 2: 0
    Битовая глубина : 8 бит
    Тип развёртки : Прогрессивная
    Метод сжатия : С потерями
    Бит/(Пиксели*Кадры) : 0.329
    Размер потока : 1, 50 Гбайт (91%)
    Библиотека кодирования : XviD 1.2.1 (UTC 2008-12-04)
    Аудио
    Идентификатор : 1
    Формат : AC-3
    Формат/Информация : Audio Coding 3
    Коммерческое название : Dolby Digital
    Идентификатор кодека : 2000
    Продолжительность : 1 ч. 39 м.
    Вид битрейта : Постоянный
    Битрейт : 192 Кбит/сек
    Каналы : 2 канала
    ChannelLayout : L R
    Частота : 48, 0 КГц
    Частота кадров : 31, 250 кадров/сек (1536 SPF)
    Битовая глубина : 16 бит
    Метод сжатия : С потерями
    Размер потока : 137 Мбайт (8%)
    Выравнивание : Разделение по промежуткам
    Продолжительность промежутка : 33 мс. (1, 00 видеокадр)
    Время предзагрузки промежутка : 500 мс.
    ServiceKind/String : Complete Main

    Скриншоты для ознакомления



    Все одноименные релизы в Клубе Время раздачи: 24/7 (до появления первых 3-5 скачавших)

    Онлайн видео Прощание



    Прощание/The Farewell (2019) WEBRip [MVO] [AD]
    Рейтинг →
     (голосов: 1, оценка 4/5, голосовать можно 1 раз )

    Другие торренты по теме:

  • Кэндимэн 2: Прощание с плотью / Candyman II: Farewell to the Flesh (1995) HDRip [H.264]
  • Прощание / The Farewell (2019) WEBRip [H.264 / 720p-LQ] [MVO] [AD]


    • Комментарии (0):

      Информация

      Информация

        Посетители, находящиеся в группе Гости, не могут оставлять комментарии в данной новости.

        ↓ Меню




        ↓ Опрос

        Вы добавили сайт в закладки?
        Да
        Нет


        Популярное