.
Авторизация | Регистрация

bitok.xyz

» » Шафт / Shaft (2019) UHD BDRemux [H.265 / 2160p] [4K, HDR, 10-bit] торрент скачать бесплатно


    Шафт / Shaft (2019) UHD BDRemux [H.265 / 2160p] [4K, HDR, 10-bit] торрент скачать бесплатно

    Дата: 1-11-2019, 05:00 | .torrent скачали: 0

    Шафт / Shaft (2019) UHD BDRemux [H.265 / 2160p] [4K, HDR, 10-bit]Производство: США/Davis Entertainment, Khalabo Ink Society, Netflix
    Жанр: Боевик, Комедия, Криминал
    Режиссер: Тим Стори

    Актеры
    Сэмюэл Л. Джексон, Джесси Ашер, Ричард Раундтри, Реджина Холл, Александра Шипп, Мэтт Лауриа, Титус Уэлливер, Метод Мэн, Исаак Де Банколе, Эван Джогиа

    Описание

    Джон Шафт III — специалист по кибербезопасности в ФБР, не привыкший решать проблемы грубой силой. Он предпочитает полагаться на логику и расчёт, но убийство лучшего друга ставит его в тупик. С ним не разобраться современными методами, так что Джону ничего не остается, кроме как обратиться за помощью к старшему поколению Шафтов, чьи старые методы помогут ему найти убийцу.

    Рейтинг MPAA: R (лицам до 17 лет обязательно присутствие взрослого)
    Дата мировой премьеры: 14 июня 2019
    Дата российской премьеры: Неизвестна
    Релиз от: selezen
    Продолжительность: 01: 51: 31
    Качество видео: UHD BDRemux
    Перевод: Дублированный, Авторский
    Субтитры: Русские (Full, Forced), Английские
    Видео: HEVC/H.265, 3840x2160, ~55, 9 Mbps
    Аудио 1: AC3, 6 ch, 640 Kbps - Русский (DUB, NETFLiX)
    Аудио 2: AC3, 6 ch, 448 Kbps - Русский (AVO, Яроцкий)
    Аудио 3: TrueHD, 8 ch, 3622 Kbps - Английский
    Аудио 4: AC3, 6 ch, 640 Kbps - Английский
    General
    Unique ID : 146427065266310783622797539274926990544 (0x6E28D3B413D11DCDD14D36C59ECA24D0)
    Complete name : D: Video111Shaft.2019.BDREMUX.2160p.HDR.seleZen.mkv
    Format : Matroska
    Format version : Version 4
    File size : 47.7 GiB
    Duration : 1 h 51 min
    Overall bit rate mode : Variable
    Overall bit rate : 61.3 Mb/s
    Movie name : Shaft 2019 4K from селезень
    Encoded date : UTC 2019-10-09 06: 16: 04
    Writing application : mkvmerge v22.0.0 (\'At The End Of The World\') 64-bit
    Writing library : libebml v1.3.5 + libmatroska v1.4.8
    Video
    ID : 1
    Format : HEVC
    Format/Info : High Efficiency Video Coding
    Format profile : Main10@L5.1@High
    HDR format : SMPTE ST 2086, HDR10 compatible
    Codec ID : V_MPEGH/ISO/HEVC
    Duration : 1 h 51 min
    Bit rate : 55.9 Mb/s
    Width : 3 840 pixels
    Height : 2 160 pixels
    Display aspect ratio : 16: 9
    Frame rate mode : Constant
    Frame rate : 23.976 (24000/1001) FPS
    Color space : YUV
    Chroma subsampling : 4: 2: 0 (Type 2)
    Bit depth : 10 bits
    Bits/(Pixel*Frame) : 0.281
    Stream size : 43.5 GiB (91%)
    Writing library : ATEME Titan File 3.9.0 (4.9.0.0)
    Language : English
    Default : Yes
    Forced : No
    Color range : Limited
    Color primaries : BT.2020
    Transfer characteristics : PQ
    Matrix coefficients : BT.2020 non-constant
    Mastering display color pri : Display P3
    Mastering display luminance : min: 0.0050 cd/m2, max: 4000 cd/m2
    Maximum Content Light Level : 718 cd/m2
    Maximum Frame-Average Light : 132 cd/m2
    Audio #1
    ID : 2
    Format : AC-3
    Format/Info : Audio Coding 3
    Commercial name : Dolby Digital
    Codec ID : A_AC3
    Duration : 1 h 51 min
    Bit rate mode : Constant
    Bit rate : 640 kb/s
    Channel(s) : 6 channels
    Channel layout : L R C LFE Ls Rs
    Sampling rate : 48.0 kHz
    Frame rate : 31.250 FPS (1536 SPF)
    Bit depth : 16 bits
    Compression mode : Lossy
    Stream size : 511 MiB (1%)
    Title : Dub Netflix
    Language : Russian
    Service kind : Complete Main
    Default : Yes
    Forced : Yes
    Audio #2
    ID : 3
    Format : AC-3
    Format/Info : Audio Coding 3
    Commercial name : Dolby Digital
    Codec ID : A_AC3
    Duration : 1 h 51 min
    Bit rate mode : Constant
    Bit rate : 448 kb/s
    Channel(s) : 6 channels
    Channel layout : L R C LFE Ls Rs
    Sampling rate : 48.0 kHz
    Frame rate : 31.250 FPS (1536 SPF)
    Bit depth : 16 bits
    Compression mode : Lossy
    Stream size : 357 MiB (1%)
    Title : AVO kyberpunk
    Language : Russian
    Service kind : Complete Main
    Default : No
    Forced : No
    Audio #3
    ID : 4
    Format : MLP FBA 16-ch
    Format/Info : Meridian Lossless Packing FBA with 16-channel presentation
    Commercial name : Dolby TrueHD with Dolby Atmos
    Codec ID : A_TRUEHD
    Duration : 1 h 51 min
    Bit rate mode : Variable
    Bit rate : 3 622 kb/s
    Maximum bit rate : 6 336 kb/s
    Channel(s) : 8 channels
    Channel layout : L R C LFE Ls Rs Lb Rb
    Sampling rate : 48.0 kHz
    Frame rate : 1 200.000 FPS (40 SPF)
    Compression mode : Lossless
    Stream size : 2.82 GiB (6%)
    Title : Original
    Language : English
    Default : No
    Forced : No
    Number of dynamic objects : 15
    Bed channel count : 1 channel
    Bed channel configuration : LFE
    Audio #4
    ID : 5
    Format : AC-3
    Format/Info : Audio Coding 3
    Commercial name : Dolby Digital
    Codec ID : A_AC3
    Duration : 1 h 51 min
    Bit rate mode : Constant
    Bit rate : 640 kb/s
    Channel(s) : 6 channels
    Channel layout : L R C LFE Ls Rs
    Sampling rate : 48.0 kHz
    Frame rate : 31.250 FPS (1536 SPF)
    Bit depth : 16 bits
    Compression mode : Lossy
    Stream size : 510 MiB (1%)
    Language : English
    Service kind : Complete Main
    Default : No
    Forced : No
    Text #1
    ID : 6
    Format : UTF-8
    Codec ID : S_TEXT/UTF8
    Codec ID/Info : UTF-8 Plain Text
    Duration : 1 h 50 min
    Bit rate : 3 b/s
    Count of elements : 47
    Stream size : 2.55 KiB (0%)
    Title : Forced
    Language : Russian
    Default : Yes
    Forced : Yes
    Text #2
    ID : 7
    Format : UTF-8
    Codec ID : S_TEXT/UTF8
    Codec ID/Info : UTF-8 Plain Text
    Duration : 1 h 50 min
    Bit rate : 119 b/s
    Count of elements : 1990
    Stream size : 96.9 KiB (0%)
    Title : Full
    Language : Russian
    Default : No
    Forced : No
    Text #3
    ID : 8
    Format : UTF-8
    Codec ID : S_TEXT/UTF8
    Codec ID/Info : UTF-8 Plain Text
    Duration : 1 h 51 min
    Bit rate : 89 b/s
    Count of elements : 2210
    Stream size : 73.1 KiB (0%)
    Language : English
    Default : No
    Forced : No
    Menu
    00: 00: 00.000 : en: Chapter 01
    00: 08: 02.774 : en: Chapter 02
    00: 17: 38.557 : en: Chapter 03
    00: 27: 55.924 : en: Chapter 04
    00: 35: 34.466 : en: Chapter 05
    00: 41: 22.438 : en: Chapter 06
    00: 49: 58.996 : en: Chapter 07
    00: 59: 05.208 : en: Chapter 08
    01: 08: 15.883 : en: Chapter 09
    01: 17: 30.563 : en: Chapter 10
    01: 23: 12.196 : en: Chapter 11
    01: 33: 29.270 : en: Chapter 12
    01: 43: 14.021 : en: Chapter 13
    01: 46: 54.742 : en: Chapter 14
    Диск на Blu-ray.com
    Просмотр 4K HDR-контента на ПК
    Скриншоты для ознакомления



    Все одноименные релизы в Клубе
    Время раздачи: Мультитрекер (до появления первых 3-5 скачавших)

    Онлайн видео Шафт



    Шафт/Shaft (2019) UHD BDRemux [H.265/2160p] [4K, HDR, 10-bit]
    Рейтинг →
     (голосов: 1, оценка 4/5, голосовать можно 1 раз )

    Другие торренты по теме:

  • Шафт / Shaft (2000) BDRip [H.264 / 1080p-LQ]
  • Шафт / Shaft (2019) WEBRip [H.264 / 720p-LQ]
  • Шафт / Shaft (2019) WEBRip [H.264 / 1080p-LQ]
  • Шафт / Shaft (2019) WEBRip
  • Шафт / Shaft (2019) WEBRip [H.264 / 1080p-LQ] [EN / RU, EN, SPA, FR, GE, IT Sub] [PR]
  • Шафт / Shaft (2019) WEBRip [H.264 / 720p-LQ]
  • Шафт / Shaft (2019) WEBRip [H.264]
  • Шафт / Shaft (2019) WEBRip [H.264]


    • Комментарии (0):

      Информация

      Информация

        Посетители, находящиеся в группе Гости, не могут оставлять комментарии в данной новости.

        ↓ Меню




        ↓ Опрос

        Вы добавили сайт в закладки?
        Да
        Нет


        Популярное