.
Авторизация | Регистрация

bitok.xyz

» » Форсаж: Хоббс и Шоу / Fast & Furious Presents: Hobbs & Shaw (2019) BDRip [H.264 / 720p-LQ] торрент скачать бесплатно


    Форсаж: Хоббс и Шоу / Fast & Furious Presents: Hobbs & Shaw (2019) BDRip [H.264 / 720p-LQ] торрент скачать бесплатно

    Дата: 1-11-2019, 05:00 | .torrent скачали: 0

    Форсаж: Хоббс и Шоу / Fast & Furious Presents: Hobbs & Shaw (2019) BDRip [H.264 / 720p-LQ]Производство: США/Universal Pictures
    Жанр: Боевик, приключения
    Режиссер: Дэвид Литч
    Продюсер: Хирам Гарсиа, Дуэйн Джонсон, Крис Морган

    Актеры
    Дуэйн Джонсон, Джейсон Стэйтем, Ванесса Кирби, Идрис Эльба, Эдди Марсан, Хелен Миррен, Райан Рейнольдс, Эйса Гонсалес, Клифф Кёртис, Элиана Суа

    Описание

    Люк Хоббс — американский элитный спецагент, он любит удобную спортивную одежду, большие пикапы и здоровое питание. Декард Шоу — британский пижон, бывший сотрудник разведки, предпочитает дорогие костюмы, спортивные авто и пабы.
    Эти двое терпеть друг друга не могут. Но если кто-то угрожает их семьям, они готовы пойти на всё. Даже на работу в команде.

    Возраст: 12+ (зрителям, достигшим 12 лет)
    Рейтинг MPAA: PG-13 (детям до 13 лет просмотр нежелателен)
    Дата мировой премьеры: 13 июля 2019
    Дата российской премьеры: 1 августа 2019, UPI
    Цифровой релиз: 26 сентября 2019, Universal
    Релиз от: NNMClub
    Продолжительность: 02: 16: 42
    Качество видео: BDRip (batonchik )
    Перевод: Дублированный (iTunes)
    Субтитры: Русские (forced), английские (full)
    Видео: AVC/H.264, 1280x536, (2.40: 1), 2950 Kbps, 23.976 fps
    Аудио: AC3, 6 ch, 384 Kbps - Русский (DUB, iTunes)--Information 31.10.2019 12: 24: 22 Standard error stream
    ---Information 31.10.2019 12: 24: 32 y4m info: 1280x536p 1: 1 @ 24000/1001 fps (cfr)
    ---Information 31.10.2019 12: 24: 32 x264 info: using SAR=1/1
    ---Information 31.10.2019 12: 24: 32 x264 info: using cpu capabilities: MMX2 SSE2Fast SSSE3 SSE4.2 AVX
    ---Information 31.10.2019 12: 24: 32 x264 info: profile High, level 4.1, 4: 2: 0, 8-bit
    ---Information 31.10.2019 17: 05: 59 x264 info: frame I: 2053 Avg QP: 17.34 size: 92954
    ---Information 31.10.2019 17: 05: 59 x264 info: frame P: 53710 Avg QP: 19.59 size: 30311
    ---Information 31.10.2019 17: 05: 59 x264 info: frame B: 140894 Avg QP: 22.33 size: 8555

    ---Information 31.10.2019 17: 05: 59 x264 info: consecutive B-frames: 5.3% 10.5% 11.7% 19.0% 15.6% 29.4% 4.9% 1.3% 1.1% 0.6% 0.5%
    General
    Unique ID : 240592259691348708724376706748904284555 (0xB500623C4EFEEF17D1C0B1A7BE3EA18B)
    Complete name : N: Форсаж-Хоббс и Шоу_Fast Furious Presents-Hobbs Shaw (2019) BDRip.H.264.720p.LQ.NNMClub.mkv
    Format : Matroska
    Format version : Version 4
    File size : 3.19 GiB
    Duration : 2 h 16 min
    Overall bit rate : 3 336 kb/s
    Movie name : Форсаж: Хоббс и Шоу_Fast Furious Presents: Hobbs Shaw (2019) BDRip.H.264.720p.LQ.NNMClub
    Encoded date : UTC 2019-10-31 14: 59: 27
    Writing application : mkvmerge v36.0.0 (\'Is That Jazz?\') 64-bit
    Writing library : libebml v1.3.9 + libmatroska v1.5.2
    Video
    ID : 1
    Format : AVC
    Format/Info : Advanced Video Codec
    Format profile : High@L4.1
    Format settings : CABAC/12 Ref Frames
    Format settings, CABAC : Yes
    Format settings, Reference frames : 12 frames
    Codec ID : V_MPEG4/ISO/AVC
    Duration : 2 h 16 min
    Bit rate : 2 950 kb/s
    Width : 1 280 pixels
    Height : 536 pixels
    Display aspect ratio : 2.40: 1
    Frame rate mode : Constant
    Frame rate : 23.976 (24000/1001) FPS
    Color space : YUV
    Chroma subsampling : 4: 2: 0
    Bit depth : 8 bits
    Scan type : Progressive
    Bits/(Pixel*Frame) : 0.179
    Stream size : 2.82 GiB (88%)
    Title : Форсаж: Хоббс и Шоу_Fast Furious Presents: Hobbs Shaw (2019) BDRip.H.264.720p.LQ.NNMClub
    Writing library : x264 core 158 r2984 3759fcb
    Encoding settings : cabac=1/ref=12/deblock=1: -3: -3/analyse=0x3: 0x133/me=umh/subme=10/psy=1/psy_rd=1.00: 0.25/mixed_ref=1/me_range=24/chroma_me=1/trellis=2/8x8dct=1/cqm=0/deadzone=6, 6/fast_pskip=0/chroma_qp_offset=-4/threads=12/lookahead_threads=3/sliced_threads=0/nr=0/decimate=0/interlaced=0/bluray_compat=0/constrained_intra=0/bframes=10/b_pyramid=2/b_adapt=2/b_bias=0/direct=1/weightb=1/open_gop=0/weightp=2/keyint=240/keyint_min=23/scenecut=40/intra_refresh=0/rc_lookahead=40/rc=2pass/mbtree=1/bitrate=2950/ratetol=1.0/qcomp=0.60/qpmin=0/qpmax=69/qpstep=4/cplxblur=20.0/qblur=0.5/vbv_maxrate=50000/vbv_bufsize=62500/nal_hrd=none/filler=0/ip_ratio=1.10/aq=3: 0.80
    Language : English
    Default : Yes
    Forced : No
    Audio
    ID : 2
    Format : AC-3
    Format/Info : Audio Coding 3
    Commercial name : Dolby Digital
    Codec ID : A_AC3
    Duration : 2 h 16 min
    Bit rate mode : Constant
    Bit rate : 384 kb/s
    Channel(s) : 6 channels
    Channel layout : L R C LFE Ls Rs
    Sampling rate : 48.0 kHz
    Frame rate : 31.250 FPS (1536 SPF)
    Compression mode : Lossy
    Stream size : 375 MiB (12%)
    Title : DUB, iTunes
    Language : Russian
    Service kind : Complete Main
    Default : Yes
    Forced : No
    Text #1
    ID : 3
    Format : UTF-8
    Codec ID : S_TEXT/UTF8
    Codec ID/Info : UTF-8 Plain Text
    Duration : 2 h 4 min
    Bit rate : 1 b/s
    Count of elements : 47
    Stream size : 1.38 KiB (0%)
    Title : forced
    Language : Russian
    Default : Yes
    Forced : No
    Text #2
    ID : 4
    Format : UTF-8
    Codec ID : S_TEXT/UTF8
    Codec ID/Info : UTF-8 Plain Text
    Duration : 2 h 1 min
    Bit rate : 61 b/s
    Count of elements : 1947
    Stream size : 54.9 KiB (0%)
    Title : full
    Language : English
    Default : No
    Forced : No
    Menu
    00: 00: 00.000 : en: 00: 00: 00.000
    00: 04: 58.131 : en: 00: 04: 58.131
    00: 13: 43.489 : en: 00: 13: 43.489
    00: 19: 21.452 : en: 00: 19: 21.452
    00: 26: 45.979 : en: 00: 26: 45.979
    00: 35: 41.514 : en: 00: 35: 41.514
    00: 40: 13.244 : en: 00: 40: 13.244
    00: 46: 22.029 : en: 00: 46: 22.029
    00: 51: 34.216 : en: 00: 51: 34.216
    00: 57: 51.802 : en: 00: 57: 51.802
    01: 01: 53.251 : en: 01: 01: 53.251
    01: 08: 45.163 : en: 01: 08: 45.163
    01: 14: 22.833 : en: 01: 14: 22.833
    01: 19: 48.075 : en: 01: 19: 48.075
    01: 24: 59.261 : en: 01: 24: 59.261
    01: 32: 58.198 : en: 01: 32: 58.198
    01: 38: 48.923 : en: 01: 38: 48.923
    01: 46: 32.970 : en: 01: 46: 32.970
    01: 53: 29.594 : en: 01: 53: 29.594
    02: 01: 14.809 : en: 02: 01: 14.809

    Скриншоты для ознакомления


    Все одноименные релизы в Клубе
    Время раздачи: 24/7 до первых 10-и скачавших

    Онлайн видео Форсаж: Хоббс и Шоу



    Форсаж: Хоббс и Шоу/Fast & Furious Presents: Hobbs & Shaw (2019) BDRip [H.264/720p-LQ]
    Рейтинг →
     (голосов: 1, оценка 3/5, голосовать можно 1 раз )

    Другие торренты по теме:

  • Форсаж: Хоббс и Шоу / Fast & Furious Presents: Hobbs & Shaw (2019) CAMRip [H.264 / 720p-LQ] [AD]
  • Форсаж: Хоббс и Шоу / Fast & Furious Presents: Hobbs & Shaw (2019) CAMRip [AD]
  • Форсаж: Хоббс и Шоу / Fast & Furious Presents: Hobbs & Shaw (2019) WEBRip [H.264 / 1080p] [EN / KOR Sub] [PR]
  • Форсаж: Хоббс и Шоу / Fast & Furious Presents: Hobbs & Shaw (2019) WEBRip [H.264] [UKR, EN / KOR Sub] [Line]
  • Форсаж: Хоббс и Шоу / Fast & Furious Presents: Hobbs & Shaw (2019) WEBRip [UKR / KOR Sub] [Line]
  • Форсаж: Хоббс и Шоу / Fast & Furious Presents: Hobbs & Shaw (2019) WEBRip [H.264 / 1080p-LQ] [UKR, EN / KOR Sub] [Line]
  • Форсаж: Хоббс и Шоу / Fast & Furious Presents: Hobbs & Shaw (2019) WEBRip [H.264 / 1080p-LQ] [Line] [AD]
  • Форсаж: Хоббс и Шоу / Fast & Furious Presents: Hobbs & Shaw (2019) WEBRip [Line] [AD]


    • Комментарии (0):

      Информация

      Информация

        Посетители, находящиеся в группе Гости, не могут оставлять комментарии в данной новости.

        ↓ Меню




        ↓ Опрос

        Вы добавили сайт в закладки?
        Да
        Нет


        Популярное