.
Авторизация | Регистрация

bitok.xyz

» » Годзилла 2: Король монстров / Godzilla: King of the Monsters (2019) BDRemux [H.264 / 1080p] торрент скачать бесплатно


    Годзилла 2: Король монстров / Godzilla: King of the Monsters (2019) BDRemux [H.264 / 1080p] торрент скачать бесплатно

    Дата: 1-11-2019, 05:00 | .torrent скачали: 0

    Годзилла 2: Король монстров / Godzilla: King of the Monsters (2019) BDRemux [H.264 / 1080p]Производство: США, Япония/Warner Bros., Legendary Entertainment, Toho Company
    Жанр: Фантастика, Фэнтези, Боевик, Приключения
    Режиссер: Майкл Догерти

    Актеры
    Кайл Чандлер, Вера Фармига, Милли Бобби Браун, Кэн Ватанабэ, Цзыи Чжан, Брэдли Уитфорд, Салли Хокинс, Чарльз Дэнс, Томас Миддлдитч, Аиша Хайндс

    Описание

    История рассказывает о героических усилиях криптозоологического агентства Монарх по сдерживанию гигантских монстров. В этот раз против могучего Годзиллы выступают Мотра, Родан и ультимативный кайдзю — трёхголовый монстр Кинг Гидора. Когда эти древние суперхищники, со временем превратившиеся в полузабытые мифы, восстают снова, чтобы сойтись в схватке, человечеству остаётся отойти в сторонку и постараться не погибнуть.

    Рейтинг MPAA: PG-13 (детям до 13 лет просмотр нежелателен)
    Дата мировой премьеры: 29 мая 2019
    Дата российской премьеры: 30 мая 2019, Каро-Премьер 3D
    Релиз от: selezen
    Продолжительность: 02: 11: 42
    Качество видео: BDRemux
    Перевод: Дублированный, Многоголосый
    Субтитры: Русские (Full, Forced), Украинские (Forced), Английские (Full, SDH)
    Видео: AVC/H.264, 1920x1080, ~21, 9 Mbps
    Аудио 1: AC3, 6 ch, 448 Kbps - Русский (DUB, Лицензия)
    Аудио 2: AC3, 6 ch, 192 Kbps - Русский (MVO, HDRezka Studio)
    Аудио 3: AC3, 2 ch, 160 Kbps - Украинский (Dub, iTunes)
    Аудио 4: TrueHD, 8 ch, 3797 Kbps - Английский
    Аудио 5: AC3, 6 ch, 448 Kbps - Английский
    General
    Unique ID : 334649367185790677927315175292690877520 (0xFBC31FABAD59697FA1C15271610DCC50)
    Complete name : D: Video111Godzilla.King.of.the.Monsters.2019.Lic.BDREMUX.1080p.seleZen.mkv
    Format : Matroska
    Format version : Version 4
    File size : 24.9 GiB
    Duration : 2 h 11 min
    Overall bit rate mode : Variable
    Overall bit rate : 27.1 Mb/s
    Movie name : Godzilla King of the Monsters 2019 from селезень
    Encoded date : UTC 2019-10-23 12: 35: 34
    Writing application : mkvmerge v22.0.0 (\'At The End Of The World\') 64-bit
    Writing library : libebml v1.3.5 + libmatroska v1.4.8
    Video
    ID : 1
    Format : AVC
    Format/Info : Advanced Video Codec
    Format profile : High@L4.1
    Format settings : CABAC/2 Ref Frames
    Format settings, CABAC : Yes
    Format settings, Reference : 2 frames
    Format settings, GOP : M=1, N=10
    Codec ID : V_MPEG4/ISO/AVC
    Duration : 2 h 11 min
    Bit rate mode : Variable
    Bit rate : 21.9 Mb/s
    Width : 1 920 pixels
    Height : 1 080 pixels
    Display aspect ratio : 16: 9
    Frame rate mode : Constant
    Frame rate : 23.976 (24000/1001) FPS
    Color space : YUV
    Chroma subsampling : 4: 2: 0
    Bit depth : 8 bits
    Scan type : Progressive
    Bits/(Pixel*Frame) : 0.441
    Stream size : 20.2 GiB (81%)
    Language : English
    Default : Yes
    Forced : No
    Audio #1
    ID : 2
    Format : AC-3
    Format/Info : Audio Coding 3
    Commercial name : Dolby Digital
    Codec ID : A_AC3
    Duration : 2 h 11 min
    Bit rate mode : Constant
    Bit rate : 448 kb/s
    Channel(s) : 6 channels
    Channel layout : L R C LFE Ls Rs
    Sampling rate : 48.0 kHz
    Frame rate : 31.250 FPS (1536 SPF)
    Bit depth : 16 bits
    Compression mode : Lossy
    Stream size : 422 MiB (2%)
    Title : Dub License
    Language : Russian
    Service kind : Complete Main
    Default : Yes
    Forced : Yes
    Audio #2
    ID : 3
    Format : AC-3
    Format/Info : Audio Coding 3
    Commercial name : Dolby Digital
    Codec ID : A_AC3
    Duration : 2 h 11 min
    Bit rate mode : Constant
    Bit rate : 192 kb/s
    Channel(s) : 2 channels
    Channel layout : L R
    Sampling rate : 48.0 kHz
    Frame rate : 31.250 FPS (1536 SPF)
    Bit depth : 16 bits
    Compression mode : Lossy
    Stream size : 181 MiB (1%)
    Title : MVO HDRezka Studio
    Language : Russian
    Service kind : Complete Main
    Default : No
    Forced : No
    Audio #3
    ID : 4
    Format : AC-3
    Format/Info : Audio Coding 3
    Commercial name : Dolby Digital
    Codec ID : A_AC3
    Duration : 2 h 11 min
    Bit rate mode : Constant
    Bit rate : 160 kb/s
    Channel(s) : 2 channels
    Channel layout : L R
    Sampling rate : 48.0 kHz
    Frame rate : 31.250 FPS (1536 SPF)
    Bit depth : 16 bits
    Compression mode : Lossy
    Stream size : 151 MiB (1%)
    Title : Dub iTunes
    Language : Ukrainian
    Service kind : Complete Main
    Default : No
    Forced : No
    Audio #4
    ID : 5
    Format : MLP FBA 16-ch
    Format/Info : Meridian Lossless Packing FBA with 16-channel presentation
    Commercial name : Dolby TrueHD with Dolby Atmos
    Codec ID : A_TRUEHD
    Duration : 2 h 11 min
    Bit rate mode : Variable
    Bit rate : 3 797 kb/s
    Maximum bit rate : 6 537 kb/s
    Channel(s) : 8 channels
    Channel layout : L R C LFE Ls Rs Lb Rb
    Sampling rate : 48.0 kHz
    Frame rate : 1 200.000 FPS (40 SPF)
    Compression mode : Lossless
    Stream size : 3.49 GiB (14%)
    Title : Original
    Language : English
    Default : No
    Forced : No
    Number of dynamic objects : 15
    Bed channel count : 1 channel
    Bed channel configuration : LFE
    Audio #5
    ID : 6
    Format : AC-3
    Format/Info : Audio Coding 3
    Commercial name : Dolby Digital
    Codec ID : A_AC3
    Duration : 2 h 11 min
    Bit rate mode : Constant
    Bit rate : 448 kb/s
    Channel(s) : 6 channels
    Channel layout : L R C LFE Ls Rs
    Sampling rate : 48.0 kHz
    Frame rate : 31.250 FPS (1536 SPF)
    Bit depth : 16 bits
    Compression mode : Lossy
    Stream size : 422 MiB (2%)
    Language : English
    Service kind : Complete Main
    Default : No
    Forced : No
    Text #1
    ID : 7
    Format : UTF-8
    Codec ID : S_TEXT/UTF8
    Codec ID/Info : UTF-8 Plain Text
    Duration : 2 h 8 min
    Bit rate : 1 b/s
    Count of elements : 24
    Stream size : 1.42 KiB (0%)
    Title : Forced
    Language : Russian
    Default : Yes
    Forced : Yes
    Text #2
    ID : 8
    Format : UTF-8
    Codec ID : S_TEXT/UTF8
    Codec ID/Info : UTF-8 Plain Text
    Duration : 2 h 10 min
    Bit rate : 77 b/s
    Count of elements : 1372
    Stream size : 74.2 KiB (0%)
    Title : Full
    Language : Russian
    Default : No
    Forced : No
    Text #3
    ID : 9
    Format : UTF-8
    Codec ID : S_TEXT/UTF8
    Codec ID/Info : UTF-8 Plain Text
    Duration : 2 h 9 min
    Bit rate : 5 b/s
    Count of elements : 73
    Stream size : 4.92 KiB (0%)
    Title : Forced
    Language : Ukrainian
    Default : No
    Forced : No
    Text #4
    ID : 10
    Format : UTF-8
    Codec ID : S_TEXT/UTF8
    Codec ID/Info : UTF-8 Plain Text
    Duration : 2 h 10 min
    Bit rate : 42 b/s
    Count of elements : 1482
    Stream size : 40.9 KiB (0%)
    Title : Full
    Language : English
    Default : No
    Forced : No
    Text #5
    ID : 11
    Format : UTF-8
    Codec ID : S_TEXT/UTF8
    Codec ID/Info : UTF-8 Plain Text
    Duration : 2 h 11 min
    Bit rate : 51 b/s
    Count of elements : 1857
    Stream size : 49.7 KiB (0%)
    Title : SDH
    Language : English
    Default : No
    Forced : No
    Menu
    00: 00: 00.000 : en: Chapter 1
    00: 10: 53.903 : en: Chapter 2
    00: 18: 06.835 : en: Chapter 3
    00: 30: 27.325 : en: Chapter 4
    00: 45: 18.632 : en: Chapter 5
    00: 54: 11.039 : en: Chapter 6
    01: 05: 41.646 : en: Chapter 7
    01: 09: 31.584 : en: Chapter 8
    01: 19: 31.308 : en: Chapter 9
    01: 30: 06.234 : en: Chapter 10
    01: 38: 36.869 : en: Chapter 11
    01: 49: 58.883 : en: Chapter 12
    01: 59: 28.828 : en: Chapter 13

    Скриншоты для ознакомления



    Все одноименные релизы в Клубе
    Время раздачи: Мультитрекер (до появления первых 3-5 скачавших)

    Онлайн видео Годзилла 2: Король монстров



    Годзилла 2: Король монстров/Godzilla: King of the Monsters (2019) BDRemux [H.264/1080p]
    Рейтинг →
     (голосов: 1, оценка 5/5, голосовать можно 1 раз )

    Другие торренты по теме:

  • Годзилла & Годзилла 2: Король монстров / Godzilla & Godzilla: King of the Monsters (2014, 2019) BDRip [H.265 / 1080p] [10-bit] [Дилогия]
  • Bear McCreary - Godzilla: King of Monsters / Годзилла 2: Король монстров (Original Motion Picture Soundtrack) (2019) Single [FLAC|Lossless|WEB-DL|tracks]<Soundtrack>
  • Bear McCreary - Godzilla: King of Monsters / Годзилла 2: Король монстров (Original Motion Picture Soundtrack) (2019) Single [MP3|320 кб / с]<Soundtrack>
  • Bear McCreary - Godzilla: King of the Monsters / Годзилла 2: Король монстров (Original Motion Picture Soundtrack) (2019) [MP3|320 кб / с]<Soundtrack>
  • Bear McCreary - Godzilla: King of the Monsters / Годзилла 2: Король монстров (Original Motion Picture Soundtrack) (2019) [FLAC|Lossless|WEB-DL|tracks]<Soundtrack>
  • Годзилла 2: Король монстров / Godzilla: King of the Monsters (2019) TS [H.264 / 720p-LQ] [AD]
  • Годзилла 2: Король монстров / Godzilla: King of the Monsters (2019) WEBRip [H.264 / 1080p-LQ] [Line, AD]
  • Годзилла 2: Король монстров / Godzilla: King of the Monsters (2019) WEBRip [UKR, EN / KOR Sub] [Line]


    • Комментарии (0):

      Информация

      Информация

        Посетители, находящиеся в группе Гости, не могут оставлять комментарии в данной новости.

        ↓ Меню




        ↓ Опрос

        Вы добавили сайт в закладки?
        Да
        Нет


        Популярное