.
Авторизация | Регистрация

bitok.xyz

» » Человек-паук: Вдали от дома / Spider-Man: Far from Home (2019) UHD BDRemux [H.265 / 2160p] [4K, HDR, 10-bit] торрент скачать бесплатно


    Человек-паук: Вдали от дома / Spider-Man: Far from Home (2019) UHD BDRemux [H.265 / 2160p] [4K, HDR, 10-bit] торрент скачать бесплатно

    Дата: 1-11-2019, 05:00 | .torrent скачали: 0

    Человек-паук: Вдали от дома / Spider-Man: Far from Home (2019) UHD BDRemux [H.265 / 2160p] [4K, HDR, 10-bit]Производство: США/Columbia Pictures, Pascal Pictures, Marvel Studios
    Жанр: Фантастика, Боевик, Приключения
    Режиссер: Джон Уоттс

    Актеры
    Том Холланд, Сэмюэл Л. Джексон, Джейк Джилленхол, Зендея, Коби Смолдерс, Мариса Томей, Джон Фавро, Джейкоб Баталон, Тони Револори, Энгаури Райс

    Описание

    Питер Паркер вместе с друзьями отправляется на летние каникулы в Европу. Однако отдохнуть приятелям вряд ли удастся: Питеру придётся согласиться помочь Нику Фьюри раскрыть тайну существ, вызывающих стихийные бедствия и разрушения по всему континенту.

    Возраст: 12+ (зрителям, достигшим 12 лет)
    Рейтинг MPAA: PG-13 (детям до 13 лет просмотр нежелателен)
    Дата мировой премьеры: 26 июня 2019
    Дата российской премьеры: 4 июля 2019, WDSSPR
    Релиз от: selezen
    Продолжительность: 02: 09: 23
    Качество видео: UHD BDRemux
    Перевод: Дублированный, Многоголосый
    Субтитры: Русские (Full, Forced), Английские, Украинские
    Видео: HEVC/H.265, 3840x2160, ~53, 7 Mbps
    Аудио 1: AC3, 6 ch, 640 Kbps - Русский (DUB, Лицензия)
    Аудио 2: AC3, 2 ch, 192 Kbps - Русский (MVO, HDRezka Studio)
    Аудио 3: AC3, 2 ch, 160 Kbps - Украинский (DUB, iTunes)
    Аудио 4: TrueHD, 8 ch, 3077 Kbps - Английский
    Аудио 5: AC3, 6 ch, 640 Kbps - Английский
    General
    Unique ID : 147524459637978832216697519046345319775 (0x6EFC2D6C5B29BCDEE8703D9063DB655F)
    Complete name : D: Video111Spider-Man.Far.from.Home.2019.Lic.BDREMUX.2160p.HDR.seleZen.mkv
    Format : Matroska
    Format version : Version 4
    File size : 52.8 GiB
    Duration : 2 h 9 min
    Overall bit rate mode : Variable
    Overall bit rate : 58.4 Mb/s
    Movie name : Spider-Man: Far from Home 2019 4K from селезень
    Encoded date : UTC 2019-10-22 23: 19: 32
    Writing application : mkvmerge v22.0.0 (\'At The End Of The World\') 64-bit
    Writing library : libebml v1.3.5 + libmatroska v1.4.8
    Video
    ID : 1
    Format : HEVC
    Format/Info : High Efficiency Video Coding
    Format profile : Main10@L5.1@High
    HDR format : SMPTE ST 2086, HDR10 compatible
    Codec ID : V_MPEGH/ISO/HEVC
    Duration : 2 h 9 min
    Bit rate : 53.7 Mb/s
    Width : 3 840 pixels
    Height : 2 160 pixels
    Display aspect ratio : 16: 9
    Frame rate mode : Constant
    Frame rate : 23.976 (24000/1001) FPS
    Color space : YUV
    Chroma subsampling : 4: 2: 0 (Type 2)
    Bit depth : 10 bits
    Bits/(Pixel*Frame) : 0.270
    Stream size : 48.5 GiB (92%)
    Language : English
    Default : Yes
    Forced : No
    Color range : Limited
    Color primaries : BT.2020
    Transfer characteristics : PQ
    Matrix coefficients : BT.2020 non-constant
    Mastering display color pri : Display P3
    Mastering display luminance : min: 0.0001 cd/m2, max: 1000 cd/m2
    Maximum Content Light Level : 9978 cd/m2
    Maximum Frame-Average Light : 614 cd/m2
    Audio #1
    ID : 2
    Format : AC-3
    Format/Info : Audio Coding 3
    Commercial name : Dolby Digital
    Codec ID : A_AC3
    Duration : 2 h 9 min
    Bit rate mode : Constant
    Bit rate : 640 kb/s
    Channel(s) : 6 channels
    Channel layout : L R C LFE Ls Rs
    Sampling rate : 48.0 kHz
    Frame rate : 31.250 FPS (1536 SPF)
    Bit depth : 16 bits
    Compression mode : Lossy
    Stream size : 592 MiB (1%)
    Title : Dub License
    Language : Russian
    Service kind : Complete Main
    Default : Yes
    Forced : Yes
    Audio #2
    ID : 3
    Format : AC-3
    Format/Info : Audio Coding 3
    Commercial name : Dolby Digital
    Codec ID : A_AC3
    Duration : 2 h 9 min
    Bit rate mode : Constant
    Bit rate : 192 kb/s
    Channel(s) : 2 channels
    Channel layout : L R
    Sampling rate : 48.0 kHz
    Frame rate : 31.250 FPS (1536 SPF)
    Bit depth : 16 bits
    Compression mode : Lossy
    Stream size : 178 MiB (0%)
    Title : MVO HDRezka Studio
    Language : Russian
    Service kind : Complete Main
    Default : No
    Forced : No
    Audio #3
    ID : 4
    Format : AC-3
    Format/Info : Audio Coding 3
    Commercial name : Dolby Digital
    Codec ID : A_AC3
    Duration : 2 h 9 min
    Bit rate mode : Constant
    Bit rate : 160 kb/s
    Channel(s) : 2 channels
    Channel layout : L R
    Sampling rate : 48.0 kHz
    Frame rate : 31.250 FPS (1536 SPF)
    Bit depth : 16 bits
    Compression mode : Lossy
    Stream size : 148 MiB (0%)
    Title : Dub
    Language : Ukrainian
    Service kind : Complete Main
    Default : No
    Forced : No
    Audio #4
    ID : 5
    Format : MLP FBA 16-ch
    Format/Info : Meridian Lossless Packing FBA with 16-channel presentation
    Commercial name : Dolby TrueHD with Dolby Atmos
    Codec ID : A_TRUEHD
    Duration : 2 h 9 min
    Bit rate mode : Variable
    Bit rate : 3 077 kb/s
    Maximum bit rate : 5 397 kb/s
    Channel(s) : 8 channels
    Channel layout : L R C LFE Ls Rs Lb Rb
    Sampling rate : 48.0 kHz
    Frame rate : 1 200.000 FPS (40 SPF)
    Compression mode : Lossless
    Stream size : 2.78 GiB (5%)
    Title : Orihinal
    Language : English
    Default : No
    Forced : No
    Number of dynamic objects : 11
    Bed channel count : 1 channel
    Bed channel configuration : LFE
    Audio #5
    ID : 6
    Format : AC-3
    Format/Info : Audio Coding 3
    Commercial name : Dolby Digital
    Codec ID : A_AC3
    Duration : 2 h 9 min
    Bit rate mode : Constant
    Bit rate : 640 kb/s
    Channel(s) : 6 channels
    Channel layout : L R C LFE Ls Rs
    Sampling rate : 48.0 kHz
    Frame rate : 31.250 FPS (1536 SPF)
    Bit depth : 16 bits
    Compression mode : Lossy
    Stream size : 592 MiB (1%)
    Language : English
    Service kind : Complete Main
    Default : No
    Forced : No
    Text #1
    ID : 7
    Format : UTF-8
    Codec ID : S_TEXT/UTF8
    Codec ID/Info : UTF-8 Plain Text
    Duration : 2 h 8 min
    Bit rate : 0 b/s
    Count of elements : 13
    Stream size : 582 Bytes (0%)
    Title : Forced
    Language : Russian
    Default : Yes
    Forced : Yes
    Text #2
    ID : 8
    Format : UTF-8
    Codec ID : S_TEXT/UTF8
    Codec ID/Info : UTF-8 Plain Text
    Duration : 2 h 8 min
    Bit rate : 92 b/s
    Count of elements : 1666
    Stream size : 86.8 KiB (0%)
    Title : Full
    Language : Russian
    Default : No
    Forced : No
    Text #3
    ID : 9
    Format : UTF-8
    Codec ID : S_TEXT/UTF8
    Codec ID/Info : UTF-8 Plain Text
    Duration : 2 h 8 min
    Bit rate : 92 b/s
    Count of elements : 1666
    Stream size : 86.8 KiB (0%)
    Title : Full Елена, Лев Вержбицкие
    Language : Russian
    Default : No
    Forced : No
    Text #4
    ID : 10
    Format : UTF-8
    Codec ID : S_TEXT/UTF8
    Codec ID/Info : UTF-8 Plain Text
    Duration : 2 h 8 min
    Bit rate : 94 b/s
    Count of elements : 1759
    Stream size : 89.3 KiB (0%)
    Title : Full
    Language : Ukrainian
    Default : No
    Forced : No
    Text #5
    ID : 11
    Format : UTF-8
    Codec ID : S_TEXT/UTF8
    Codec ID/Info : UTF-8 Plain Text
    Duration : 2 h 7 min
    Bit rate : 62 b/s
    Count of elements : 1749
    Stream size : 58.2 KiB (0%)
    Title : Full
    Language : English
    Default : No
    Forced : No
    Text #6
    ID : 12
    Format : UTF-8
    Codec ID : S_TEXT/UTF8
    Codec ID/Info : UTF-8 Plain Text
    Duration : 2 h 8 min
    Bit rate : 68 b/s
    Count of elements : 1929
    Stream size : 64.0 KiB (0%)
    Title : SDH
    Language : English
    Default : No
    Forced : No
    Menu
    00: 00: 00.000 : en: Chapter 01
    00: 09: 35.033 : en: Chapter 02
    00: 16: 06.716 : en: Chapter 03
    00: 25: 18.475 : en: Chapter 04
    00: 35: 26.499 : en: Chapter 05
    00: 41: 57.014 : en: Chapter 06
    00: 49: 50.029 : en: Chapter 07
    00: 57: 09.509 : en: Chapter 08
    01: 04: 50.637 : en: Chapter 09
    01: 15: 57.219 : en: Chapter 10
    01: 22: 49.089 : en: Chapter 11
    01: 29: 25.193 : en: Chapter 12
    01: 36: 43.256 : en: Chapter 13
    01: 44: 47.364 : en: Chapter 14
    01: 52: 17.397 : en: Chapter 15
    01: 57: 45.433 : en: Chapter 16
    Диск на Blu-ray.com
    Просмотр 4K HDR-контента на ПК
    Скриншоты для ознакомления



    Все одноименные релизы в Клубе
    Время раздачи: Мультитрекер (до появления первых 3-5 скачавших)

    Онлайн видео Человек-паук: Вдали от дома



    Человек-паук: Вдали от дома/Spider-Man: Far from Home (2019) UHD BDRemux [H.265/2160p] [4K, HDR, 10-bit]
    Рейтинг →
     (голосов: 1, оценка 5/5, голосовать можно 1 раз )

    Другие торренты по теме:

  • Человек-паук: Вдали от дома / Spider-Man: Far From Home (2019) WEBRip [H.264 / 1080p] [Трейлер] [EN]
  • Человек-паук: Вдали от дома / Spider-Man: Far from Home (2019) CamRip [H.264 / 720p-LQ] [MVO] [AD]
  • Человек-паук: Вдали от дома / Spider-Man: Far from Home (2019) CamRip [H.264 / 720p-LQ] [AD]
  • Michael Giacchino - Spider-Man: Far from Home / Человек-паук: Вдали от дома (Original Motion Picture Soundtrack) (2019) [FLAC|Lossless|WEB-DL|tracks]<Soundtrack>
  • Michael Giacchino - Spider-Man: Far from Home / Человек-паук: Вдали от дома (Original Motion Picture Soundtrack) (2019) [MP3|320 кб / с]<Soundtrack>
  • Человек-паук: Вдали от дома / Spider-Man: Far from Home (2019) TS [H.264 / 720p-LQ] [AD]
  • Человек-паук: Вдали от дома / Spider-Man: Far from Home (2019) WEB-DLRip [Line] [AD]
  • Человек-паук: Вдали от дома / Spider-Man: Far from Home (2019) WEB-DLRip [H.264 / 1080p-LQ] [Line, AD]


    • Комментарии (0):

      Информация

      Информация

        Посетители, находящиеся в группе Гости, не могут оставлять комментарии в данной новости.

        ↓ Меню




        ↓ Опрос

        Вы добавили сайт в закладки?
        Да
        Нет


        Популярное