.
Авторизация | Регистрация

bitok.xyz

» » Шпионская игра / The Catcher Was a Spy (2018) BDRip [H.265 / 720p] [10-bit] [PR] торрент скачать бесплатно


    Шпионская игра / The Catcher Was a Spy (2018) BDRip [H.265 / 720p] [10-bit] [PR] торрент скачать бесплатно

    Дата: 1-11-2019, 05:00 | .torrent скачали: 0

    Шпионская игра / The Catcher Was a Spy (2018) BDRip [H.265 / 720p] [10-bit] [PR]Производство: США/Animus Films, Palm-Star Entertainment, Serena Films
    Жанр: Триллер, Приключения
    Режиссер: Бен Луин

    Актеры
    Пол Радд, Пьерфранческо Фавино, Том Уилкинсон, Конни Нильсен, Анна Гейслерова, Марк Стронг, Simon Perina, Джон Шваб, Krystof Dupal, Jirí Vavrusa

    Описание

    Разгар Второй мировой войны. Жизнь Мо Берга, интеллектуала, полиглота, выпускника престижного университета и известного спортсмена-бейсболиста, круто меняется, когда ему предлагают сотрудничество с Управлением стратегических служб (предшественник ЦРУ). Благодаря своим разнообразным талантам, а также умению хранить секреты, Мо быстро осваивается в роли шпиона. От выполнения его первого задания зависит — ни много ни мало — судьба всего мира. Берг должен отправиться в фашистскую Германию, чтобы выкрасть или уничтожить Вернера Гейзенберга, одного из ученых — разработчиков атомной бомбы…

    Возраст: 18+ (зрителям, достигшим 18 лет. запрещено для детей)
    Рейтинг MPAA: R (лицам до 17 лет обязательно присутствие взрослого)
    Дата мировой премьеры: 19 января 2018
    Дата российской премьеры: 2 августа 2018, Cinema Prestige
    Продолжительность: 01: 34: 31
    Качество видео: BDRip (720p)
    Перевод: Дублированный (iTunes),
    Субтитры: Английские
    Видео: HEVC/H.265, 1280х690, ~4438 Kbps
    Аудио 1: AC3, 6 ch, 384 Kbps | Русский
    Аудио 3: AC3, 6 ch, 448 Kbps | Английский
    Общее
    Уникальный идентификатор : 51867015189252691521469082318910893880 (0x27053948DA573B64E078BF43557DAF38)
    Полное имя : The.Catcher.Was.a.Spy.2018.BDRip.720p.10bit.HEVC.mkv
    Формат : Matroska
    Версия формата : Version 4/Version 2
    Размер файла : 3, 55 Гбайт
    Продолжительность : 1 ч. 34 м.
    Общий поток : 5377 Кбит/сек
    Название фильма : Шпионская игра_The Catcher Was a Spy (2018)
    Программа кодирования : XviD4PSP 8.0.90
    Библиотека кодирования : Lavf58.20.100
    ErrorDetectionType : Per level 1
    ENCODING_INFO : MATROSKA, WEBM MKV
    Видео
    Идентификатор : 1
    Формат : HEVC
    Формат/Информация : High Efficiency Video Coding
    Профиль формата : Main10@L4.1@High
    Идентификатор кодека : V_MPEGH/ISO/HEVC
    Продолжительность : 1 ч. 34 м.
    Битрейт : 4438 Кбит/сек
    Ширина : 1280 пикселей
    Высота : 690 пикселей
    Соотношение сторон : 1, 85: 1
    Режим частоты кадров : Постоянный
    Частота кадров : 23, 976 (24000/1001) кадра/сек
    Цветовое пространство : YUV
    Субдискретизация насыщенности : 4: 2: 0
    Битовая глубина : 10 бит
    Бит/(Пиксели*Кадры) : 0.210
    Размер потока : 2, 93 Гбайт (83%)
    Язык : English
    Default : Да
    Forced : Нет
    Цветовой диапазон : Limited
    Основные цвета : BT.709
    Характеристики трансфера : BT.709
    Коэффициенты матрицы : BT.709
    ENCODING_INFO : H264 HEVC NVENC VBR 4600kbps HQ
    Аудио #1
    Идентификатор : 2
    Формат : AC-3
    Формат/Информация : Audio Coding 3
    Параметр Endianness формата : Big
    Идентификатор кодека : A_AC3
    Продолжительность : 1 ч. 34 м.
    Вид битрейта : Постоянный
    Битрейт : 384 Кбит/сек
    Каналы : 6 каналов
    Расположение каналов : Front: L C R, Side: L R, LFE
    Частота : 48, 0 КГц
    Частота кадров : 31, 250 кадров/сек (1536 SPF)
    Битовая глубина : 16 бит
    Метод сжатия : С потерями
    Размер потока : 259 Мбайт (7%)
    Заголовок : Дублированный (iTunes)
    Язык : Russian
    ServiceKind/String : Complete Main
    Default : Да
    Forced : Нет
    ENCODING_INFO : AC3 COPY Безопасное
    Аудио #2
    Идентификатор : 3
    Формат : AC-3
    Формат/Информация : Audio Coding 3
    Параметр Endianness формата : Big
    Идентификатор кодека : A_AC3
    Продолжительность : 1 ч. 34 м.
    Вид битрейта : Постоянный
    Битрейт : 448 Кбит/сек
    Каналы : 6 каналов
    Расположение каналов : Front: L C R, Side: L R, LFE
    Частота : 48, 0 КГц
    Частота кадров : 31, 250 кадров/сек (1536 SPF)
    Битовая глубина : 16 бит
    Метод сжатия : С потерями
    Размер потока : 303 Мбайт (8%)
    Заголовок : DTS-HD Master Audio/5.1/48 kHz/2525 kbps/16-bit
    Язык : English
    ServiceKind/String : Complete Main
    Default : Нет
    Forced : Нет
    ENCODING_INFO : DTS-HD MA AC3 CBR 448kbps
    Текст
    Идентификатор : 4
    Формат : UTF-8
    Идентификатор кодека : S_TEXT/UTF8
    Идентификатор кодека/Информация : UTF-8 Plain Text
    Заголовок : Full
    Язык : English
    Default : Да
    Forced : Нет
    ENCODING_INFO : SUBRIP COPY Быстрое
    Меню
    00: 00: 00.000 : : Chapter 1
    00: 08: 25.004 : : Chapter 2
    00: 16: 12.137 : : Chapter 3
    00: 23: 57.018 : : Chapter 4
    00: 31: 08.116 : : Chapter 5
    00: 38: 38.316 : : Chapter 6
    00: 44: 59.363 : : Chapter 7
    00: 52: 51.960 : : Chapter 8
    01: 01: 02.492 : : Chapter 9
    01: 08: 21.806 : : Chapter 10
    01: 17: 26.767 : : Chapter 11
    01: 26: 15.879 : : Chapter 12

    Скриншоты для ознакомления



    Все одноименные релизы в Клубе
    Время раздачи: 19 - 23 (до появления первых 3-5 скачавших)

    Онлайн видео Шпионская игра



    Шпионская игра/The Catcher Was a Spy (2018) BDRip [H.265/720p] [10-bit] [PR]
    Рейтинг →
     (голосов: 1, оценка 3/5, голосовать можно 1 раз )

    Другие торренты по теме:

  • Шпионская игра / The Catcher Was a Spy (2018) WEB-DLRip [MVO] [AD]
  • Шпионская игра / The Catcher Was a Spy (2018) WEB-DL [H.264 / 1080p-LQ] [MVO]
  • Шпионская игра / The Catcher Was a Spy (2018) WEB-DL [H.264 / 1080p-LQ]
  • Шпионская игра / The Catcher Was a Spy (2018) WEB-DLRip [H.264]
  • Шпионская игра / The Catcher Was a Spy (2018) WEB-DL [1080p] ATV
  • Шпионская игра / The Catcher Was a Spy (2018) WEB-DLRip [576p] iPad
  • Шпионская игра / The Catcher Was a Spy (2018) HDRip
  • Шпионская игра / The Catcher Was a Spy (2018) BDRemux [H.264 / 1080p]


    • Комментарии (0):

      Информация

      Информация

        Посетители, находящиеся в группе Гости, не могут оставлять комментарии в данной новости.

        ↓ Меню




        ↓ Опрос

        Вы добавили сайт в закладки?
        Да
        Нет


        Популярное